Торрент файл
скачать торрент магнет ссылка Добавлен: 28 янв 2017, 18:08
Размер: 2.18 ГБ
Сидеров: 51
Личеров: 5
Автор

СообщениеДобавлено: 28 янв 2017, 18:08 

Не в сети
Дата регистрации:
28 сен 2016, 18:10
Спасибо: 211 / 0
Сообщения: 1999
Информация о фильме
Название: Приключения Тома Сойера и Гекльберри Финна
Год выхода: 1981
Жанр: Детский, приключения
Режиссёр: Станислав Говорухин
В ролях: Федя Стуков, Владик Сухачев (Галкин), Маша Миронова, Дима Рощин, Карина Моритц, Екатерина Васильева, Ролан Быков, Владимир Конкин, Виктор Павлов, Талгат Нигматулин, Лев Перфилов, Всеволод Абдулов, Валентина Шендрикова, Борис Зайденберг, Федор Одиноков, Валерий Рубинчик, Игорь Сорин, Бехайлу Менгаша
О фильме: Экранизация самого знаменитого романа американского писателя Марка Твена «Приключения Тома Сойера». Без книги о приключениях Тома и его друзей Гекльберри Финна и Бекки Тэтчер нельзя представить детство ребенка! Маленькие, но отважные герои Том и Гек разыскивают клад, становятся «пиратами», вступают в опасную схватку с индейцем Джо. Но, самое главное в этой истории - то, что они учатся быть верными друзьями и добрыми людьми...

Страна: СССР
Студия: Одесская киностудия
Продолжительность: 03:22:20
Перевод: Не требуется (оригинальный)
Файл
Формат: avi
Качество: SATRip (DVB)
Видео: XviD, 704х528, 25fps, 1339kbps
Аудио: MPEG Layer 3, 2ch, 48000Hz, 192kbps

Общее
Полное имя : Tom.Soier.I.Gek.Finn.1981.O.SATRip.2100.CurHaJI.avi
Формат : AVI
Формат/Информация : Audio Video Interleave
Профиль формата : OpenDML
Размер файла : 2,18 Гбайт
Продолжительность : 3 ч. 22 м.
Общий поток : 1543 Кбит/сек
Название фильма : Tom.Soier.I.Gek.Finn.1981.O.SATRip.2100.CurHaJI
Библиотека кодирования : VirtualDub build 35491/release
Видео
Идентификатор : 0
Формат : MPEG-4 Visual
Профиль формата : Advanced Simple@L5
Параметр BVOP формата : 1
Параметр QPel формата : Нет
Параметр GMC формата : Без точки перехода
Параметр матрицы формата : Выборочная
Идентификатор кодека : XVID
Идентификатор кодека/Подсказка : XviD
Продолжительность : 3 ч. 22 м.
Битрейт : 1339 Кбит/сек
Ширина : 704 пикселя
Высота : 528 пикселей
Соотношение сторон : 4:3
Частота кадров : 25,000 кадров/сек
Цветовое пространство : YUV
Субдискретизация насыщенности : 4:2:0
Битовая глубина : 8 бит
Тип развёртки : Прогрессивная
Метод сжатия : С потерями
Бит/(Пиксели*Кадры) : 0.144
Размер потока : 1,89 Гбайт (87%)
Библиотека кодирования : XviD 73
Аудио
Идентификатор : 1
Формат : MPEG Audio
Версия формата : Version 1
Профиль формата : Layer 3
Идентификатор кодека : 55
Идентификатор кодека/Подсказка : MP3
Продолжительность : 3 ч. 22 м.
Вид битрейта : Постоянный
Битрейт : 192 Кбит/сек
Каналы : 2 канала
Частота : 48,0 КГц
Метод сжатия : С потерями
Размер потока : 278 Мбайт (12%)
Выравнивание : Разделение по промежуткам
Продолжительность промежутка : 40 мс. (1,00 видеокадр)
Время предзагрузки промежутка : 500 мс.
Библиотека кодирования : LAME3.99r
Настройки программы : -m s -V 4 -q 2 -lowpass 18.6 -b 192


Релиз от:




реклама партнёра


Вернуться к началу
 Профиль Отправить личное сообщение  
 
   Похожие торренты   Автор   Торрент   Размер 
В этой теме нет новых непрочитанных сообщений. Приключения Тома Сойера и Гекльберри Финна [Детский, приключения, 1981] SATRip

salma3

73 | 9

1.46 ГБ

В этой теме нет новых непрочитанных сообщений. Тима и Тома [01-41] (Мультсериал, рисованный, детский, комедия, приключения, 2015-2016) WEB-DLRip от ExKinoRay

marya111

51 | 12

2 ГБ

В этой теме нет новых непрочитанных сообщений. Око за око / An Eye for an Eye [боевик, триллер, криминал, приключения, 1981] BDRip, Mvo+Dvo

salma3

2 | 0

2.18 ГБ

В этой теме нет новых непрочитанных сообщений. Галлиполи / Gallipoli [драма, приключения, военный, 1981] BDRip, Dvo

salma3

15 | 3

1.46 ГБ

В этой теме нет новых непрочитанных сообщений. Невезучие / La chevre [комедия, криминал, приключения, 1981] BDRip 720p, Dub+Mvo+Dvo+Sub

salma3

16 | 3

5.31 ГБ

В этой теме нет новых непрочитанных сообщений. Невезучие / La chèvre [Комедия, криминал, приключения, 1981] BDRip 1080p, Dub+Mvo+Dvo+Sub

salma3

42 | 2

7.65 ГБ

В этой теме нет новых непрочитанных сообщений. Проселочные дороги / Back Roads [Мелодрама, комедия, приключения, 1981] DVDRip, Avo

salma3

141 | 36

1.37 ГБ


Начать новую тему Ответить на тему  [ 1 сообщение ] 




Для Мосгорсуда, Роскомнадзора и рекламодателей:: mosgorsud-torrent[собачка]yandex.ru