Торрент файл
скачать торрент магнет ссылка Добавлен: 28 янв 2017, 18:08
Размер: 745.59 МБ
Сидеров: 8
Личеров: 5
Автор

СообщениеДобавлено: 28 янв 2017, 18:08 

Не в сети
Дата регистрации:
28 сен 2016, 18:10
Спасибо: 204 / 0
Сообщения: 2003

Страна: СССР
Производство: К/ст им. Горького
Жанр: драма, детский
Год выпуска: 1956
Продолжительность: 01:28:23
Перевод: Не требуется
Cубтитры: нет
Оригинальная аудиодорожка: русский
Режиссер: Мария Федорова
В ролях:
Андрей Демьянов, Миша Тягунов, Григорий Белов, Ада Войцик, Леонид Галлис, Марина Кузнецова, Лена Ильинская, Павел Барштейн, Виктор Легошин...
Об актёрах подробней
Описание:
В годы войны, потеряв семью, Алеша попадает в детский дом. Весь свой досуг мальчик посвящает музыке, чему всячески способствует воспитательница Мария Павловна. Обнаружив у Алеши исключительные способности, гастролирующий дирижер Добрынин усыновляет мальчика и привозит его в Москву. Добрынин очень доволен: его сын и Алеша учатся в одной музыкальной школе. Однако названный брат во многом уязвляет самолюбие Бори. После очередного оскорбления Алеша уходит из дома и попадает в дом профессора Никольского. Вскоре в Колонном зале Дома Союзов вместе с оркестром под управлением дирижера Добрынина Алеша исполняет фортепьянный концерт. Юному музыканту аплодирует Мария Павловна, Боря и весь зал.





Источник: DVB
Качество видео: SATRip
Формат видео: AVI
Видео: 640x480 (4:3), 25 fps, XviD ~ 1042 kbps avg, 0.136 bit/pixel
Аудио: 48 kHz, MP3 2.0, 128 kbps
Раздача от:
Общее
Полное имя : Prizvanie.1956.SATRip-745_[New-team]_by_AVP_Studio.avi
Формат : AVI
Формат/Информация : Audio Video Interleave
Размер файла : 746 Мбайт
Продолжительность : 1 ч. 28 м.
Общий поток : 1179 Кбит/сек
Программа кодирования : VirtualDubMod 1.5.10.3 | www.virtualdub-fr.org || (build 2550/release)
Библиотека кодирования : VirtualDubMod build 2550/release
Видео
Идентификатор : 0
Формат : MPEG-4 Visual
Профиль формата : Advanced Simple@L5
Параметр BVOP формата : 1
Параметр QPel формата : Нет
Параметр GMC формата : Без точки перехода
Параметр матрицы формата : Выборочная
Идентификатор кодека : XVID
Идентификатор кодека/Подсказка : XviD
Продолжительность : 1 ч. 28 м.
Битрейт : 1042 Кбит/сек
Ширина : 640 пикселей
Высота : 480 пикселей
Соотношение сторон : 4:3
Частота кадров : 25,000 кадров/сек
Цветовое пространство : YUV
Субдискретизация насыщенности : 4:2:0
Битовая глубина : 8 бит
Тип развёртки : Прогрессивная
Метод сжатия : С потерями
Бит/(Пиксели*Кадры) : 0.136
Размер потока : 659 Мбайт (88%)
Библиотека кодирования : XviD 73
Аудио
Идентификатор : 1
Формат : MPEG Audio
Версия формата : Version 1
Профиль формата : Layer 3
Идентификатор кодека : 55
Идентификатор кодека/Подсказка : MP3
Продолжительность : 1 ч. 28 м.
Вид битрейта : Постоянный
Битрейт : 128 Кбит/сек
Каналы : 2 канала
Частота : 48,0 КГц
Метод сжатия : С потерями
Размер потока : 80,9 Мбайт (11%)
Выравнивание : Соединение по промежуткам
Продолжительность промежутка : 40 мс. (1,00 видеокадр)
Время предзагрузки промежутка : 504 мс.
Библиотека кодирования : LAME3.99r
Настройки программы : -m s -V 4 -q 2 -lowpass 17 -b 128






реклама партнёра


Вернуться к началу
 Профиль Отправить личное сообщение  
 
   Похожие торренты   Автор   Торрент   Размер 
В этой теме нет новых непрочитанных сообщений. Призвание (1956) SATRip-AVC от New-Team

marya111

25 | 4

1.09 ГБ

В этой теме нет новых непрочитанных сообщений. Призвание (1956) SATRip от New-Team

marya111

13 | 2

1.09 ГБ

В этой теме нет новых непрочитанных сообщений. Путешествие в молодость (1956) SATRip от New-Team

marya111

24 | 14

1.09 ГБ

В этой теме нет новых непрочитанных сообщений. Софья Ковалевская (1956) SATRip-AVC от New-Team

marya111

20 | 2

1.46 ГБ

В этой теме нет новых непрочитанных сообщений. Путешествие в молодость (1956) SATRip от New-Team

marya111

20 | 18

745.36 МБ

В этой теме нет новых непрочитанных сообщений. Серый разбойник (1956) SATRip-AVC от New-Team

marya111

77 | 3

744.33 МБ

В этой теме нет новых непрочитанных сообщений. Путешествие в молодость (1956) SATRip-AVC от New-Team

marya111

58 | 17

1.09 ГБ


Начать новую тему Ответить на тему  [ 1 сообщение ] 




Для Мосгорсуда, Роскомнадзора и рекламодателей:: mosgorsud-torrent[собачка]yandex.ru