Торрент файл
скачать торрент магнет ссылка Добавлен: 28 янв 2017, 18:08
Размер: 1.09 ГБ
Сидеров: 13
Личеров: 2
Автор

СообщениеДобавлено: 28 янв 2017, 18:08 

Не в сети
Дата регистрации:
28 сен 2016, 18:10
Спасибо: 232 / 0
Сообщения: 1982

Страна: СССР
Производство: К/ст им. Горького
Жанр: драма, детский
Год выпуска: 1956
Продолжительность: 01:28:23
Перевод: Не требуется
Cубтитры: нет
Оригинальная аудиодорожка: русский
Режиссер: Мария Федорова
В ролях:
Андрей Демьянов, Миша Тягунов, Григорий Белов, Ада Войцик, Леонид Галлис, Марина Кузнецова, Лена Ильинская, Павел Барштейн, Виктор Легошин...
Об актёрах подробней
Описание:
В годы войны, потеряв семью, Алеша попадает в детский дом. Весь свой досуг мальчик посвящает музыке, чему всячески способствует воспитательница Мария Павловна. Обнаружив у Алеши исключительные способности, гастролирующий дирижер Добрынин усыновляет мальчика и привозит его в Москву. Добрынин очень доволен: его сын и Алеша учатся в одной музыкальной школе. Однако названный брат во многом уязвляет самолюбие Бори. После очередного оскорбления Алеша уходит из дома и попадает в дом профессора Никольского. Вскоре в Колонном зале Дома Союзов вместе с оркестром под управлением дирижера Добрынина Алеша исполняет фортепьянный концерт. Юному музыканту аплодирует Мария Павловна, Боря и весь зал.





Источник: DVB
Качество видео: SATRip
Формат видео: AVI
Видео: 704x528 (4:3), 25 fps, XviD ~ 1564 kbps avg, 0.168 bit/pixel
Аудио: 48 kHz, Dolby Digital AC3 2.0, 192 kbps
Раздача от:
Общее
Полное имя : Prizvanie.1956.SATRip_[New-team]_by_AVP_Studio.avi
Формат : AVI
Формат/Информация : Audio Video Interleave
Размер файла : 1,09 Гбайт
Продолжительность : 1 ч. 28 м.
Общий поток : 1765 Кбит/сек
Программа кодирования : VirtualDubMod 1.5.10.3 | www.virtualdub-fr.org || (build 2550/release)
Библиотека кодирования : VirtualDubMod build 2550/release
Видео
Идентификатор : 0
Формат : MPEG-4 Visual
Профиль формата : Advanced Simple@L5
Параметр BVOP формата : 1
Параметр QPel формата : Нет
Параметр GMC формата : Без точки перехода
Параметр матрицы формата : Выборочная
Идентификатор кодека : XVID
Идентификатор кодека/Подсказка : XviD
Продолжительность : 1 ч. 28 м.
Битрейт : 1564 Кбит/сек
Ширина : 704 пикселя
Высота : 528 пикселей
Соотношение сторон : 4:3
Частота кадров : 25,000 кадров/сек
Цветовое пространство : YUV
Субдискретизация насыщенности : 4:2:0
Битовая глубина : 8 бит
Тип развёртки : Прогрессивная
Метод сжатия : С потерями
Бит/(Пиксели*Кадры) : 0.168
Размер потока : 988 Мбайт (89%)
Библиотека кодирования : XviD 73
Аудио
Идентификатор : 1
Формат : AC-3
Формат/Информация : Audio Coding 3
Расширение режима : CM (complete main)
Параметр Endianness формата : Big
Идентификатор кодека : 2000
Продолжительность : 1 ч. 28 м.
Вид битрейта : Постоянный
Битрейт : 192 Кбит/сек
Каналы : 2 канала
Расположение каналов : Front: L R
Частота : 48,0 КГц
Частота кадров : 31,250 кадров/сек (1536 spf)
Битовая глубина : 16 бит
Метод сжатия : С потерями
Размер потока : 121 Мбайт (11%)
Выравнивание : Разделение по промежуткам
Продолжительность промежутка : 40 мс. (1,00 видеокадр)
Время предзагрузки промежутка : 500 мс





Вернуться к началу
 Профиль Отправить личное сообщение  
 
   Похожие торренты   Автор   Торрент   Размер 
В этой теме нет новых непрочитанных сообщений. Солнечный спутник / Satellite in the Sky [драма, фантастика, 1956] DVDRip-AVC, Avo

salma3

0 | 0

1.57 ГБ

В этой теме нет новых непрочитанных сообщений. Огненные девы из далекого космоса / Fire Maidens of Outer Space [Фантастика, 1956] HDRip, Avo

salma3

9 | 0

1.41 ГБ

В этой теме нет новых непрочитанных сообщений. Команда-А / The A-Team [S01] [Боевик, приключения, драма, 1983] BDRip 1080p, Mvo [ДТВ]

salma3

0 | 0

52.17 ГБ

В этой теме нет новых непрочитанных сообщений. Убийственная команда / The Kill Team [Боевик, триллер, драма, 2019] BDRip, Dub [iTunes]

salma3

0 | 0

1.46 ГБ

В этой теме нет новых непрочитанных сообщений. Cheeky 5 / Жопастенькие 5 (Team Skeet) [2019 г., Gonzo, Big Ass, WEB-DL] Split Scenes

Budulai

0 | 0

2.76 ГБ

В этой теме нет новых непрочитанных сообщений. Команда-А / The A-Team [S05] [Боевик, приключения, драма, 1986-1987] BDRip 1080p, Dvo [ДТВ]

salma3

0 | 0

48.3 ГБ

В этой теме нет новых непрочитанных сообщений. Убийственная команда / The Kill Team [Боевик, триллер, драма, 2019] BDRip 1080p, Dub [iTunes]

salma3

0 | 0

9.65 ГБ


Начать новую тему Ответить на тему  [ 1 сообщение ] 




Для Мосгорсуда, Роскомнадзора и рекламодателей:: rstracker[собака]yandex.ru
cron