Торрент файл
скачать торрент магнет ссылка Добавлен: 28 янв 2017, 18:08
Размер: 1.45 ГБ
Сидеров: 57
Личеров: 1
Автор

СообщениеДобавлено: 28 янв 2017, 18:08 

Не в сети
Дата регистрации:
28 сен 2016, 18:10
Спасибо: 203 / 0
Сообщения: 2003

Страна: Россия
Производство: ООО «Кинопрограмма ХХI век»
Жанр: детский, приключения, семейный
Год выпуска: 2015
Продолжительность: 01:39:14
Перевод: Не требуется
Cубтитры: нет
Оригинальная аудиодорожка: русский
Режиссер: Александр Карпиловский
В ролях:
Семён Трескунов, Егор Клинаев, Анфиса Вистингаузен, Василий Мищенко, Марианна Шульц, Тимофей Трибунцев, Екатерина Кузнецова (IV), Сергей Баталов, Михаил Занадворов, Илья Ермолов, Софико Квирквелия...
Полный список актёров
Описание:
Прошло два года. Наши герои выросли. Димка, Мишка и Лена едут в пионерский лагерь на море. Вместе с ними любимая собака Савва. В лагере их ждут необыкновенные приключения, сокровища, дуэли, пещеры и многое другое. И, конечно, первая любовь с настоящими шекспировскими страстями.






Источник: WEB-DL 1080p
Качество видео: WEB-DLRip-AVC
Формат видео: MKV
Видео: 1024x430 (2,35:1), 25 fps, H264 ~ 1895 kbps avg, 0.172 bit/pixel
Аудио: 48 kHz, Dolby Digital AC3 2.0, 192 kbps
Раздача от:
Общее
Полное имя : Chastnoe.pionerskoe-2.2015.WEB-DLRip-AVC_[New-team]_by_AVP_Studio.mkv
Формат : Matroska
Версия формата : Version 2
Размер файла : 1,45 Гбайт
Продолжительность : 1 ч. 39 м.
Общий поток : 2088 Кбит/сек
Дата кодирования : UTC 2017-01-19 21:13:58
Программа кодирования : mkvmerge v6.1.0 ('Old Devil') built on Mar 4 2013 09:10:42
Библиотека кодирования : libebml v1.3.0 + libmatroska v1.4.0
Видео
Идентификатор : 1
Формат : AVC
Формат/Информация : Advanced Video Codec
Профиль формата : High@L4.1
Параметр CABAC формата : Да
Параметр ReFrames формата : 10 кадров
Идентификатор кодека : V_MPEG4/ISO/AVC
Продолжительность : 1 ч. 39 м.
Битрейт : 1895 Кбит/сек
Ширина : 1024 пикселя
Высота : 430 пикселей
Соотношение сторон : 2,35:1
Соотношение сторон в оригинале : 2,35:1
Режим частоты кадров : Постоянный
Частота кадров : 25,000 кадров/сек
Цветовое пространство : YUV
Субдискретизация насыщенности : 4:2:0
Битовая глубина : 8 бит
Тип развёртки : Прогрессивная
Бит/(Пиксели*Кадры) : 0.172
Размер потока : 1,29 Гбайт (89%)
Библиотека кодирования : x264 core 148 r2597 e86f3a1
Настройки программы : cabac=1 / ref=10 / deblock=1:-3:-2 / analyse=0x3:0x113 / me=umh / subme=10 / psy=1 / psy_rd=1.00:0.00 / mixed_ref=1 / me_range=32 / chroma_me=1 / trellis=2 / 8x8dct=1 / cqm=0 / deadzone=21,11 / fast_pskip=1 / chroma_qp_offset=-2 / threads=6 / lookahead_threads=1 / sliced_threads=0 / nr=0 / decimate=0 / interlaced=0 / bluray_compat=0 / constrained_intra=0 / bframes=8 / b_pyramid=2 / b_adapt=2 / b_bias=0 / direct=3 / weightb=1 / open_gop=0 / weightp=2 / keyint=250 / keyint_min=25 / scenecut=40 / intra_refresh=0 / rc_lookahead=40 / rc=2pass / mbtree=1 / bitrate=1895 / ratetol=1.0 / qcomp=0.60 / qpmin=0 / qpmax=69 / qpstep=4 / cplxblur=20.0 / qblur=0.5 / ip_ratio=1.40 / aq=1:1.00
Default : Да
Forced : Нет
Аудио
Идентификатор : 2
Формат : AC-3
Формат/Информация : Audio Coding 3
Расширение режима : CM (complete main)
Параметр Endianness формата : Big
Идентификатор кодека : A_AC3
Продолжительность : 1 ч. 39 м.
Вид битрейта : Постоянный
Битрейт : 192 Кбит/сек
Каналы : 2 канала
Расположение каналов : Front: L R
Частота : 48,0 КГц
Частота кадров : 31,250 кадров/сек (1536 spf)
Битовая глубина : 16 бит
Метод сжатия : С потерями
Размер потока : 137 Мбайт (9%)
Default : Да
Forced : Нет






реклама партнёра


Вернуться к началу
 Профиль Отправить личное сообщение  
 
   Похожие торренты   Автор   Торрент   Размер 
В этой теме нет новых непрочитанных сообщений. Частное пионерское 2 (2015) WEB-DLRip от New-Team

marya111

140 | 21

745.84 МБ

В этой теме нет новых непрочитанных сообщений. Частное пионерское 2 (2015) WEB-DLRip от New-Team

marya111

150 | 15

1.09 ГБ

В этой теме нет новых непрочитанных сообщений. Частное пионерское 2 (2015) WEB-DLRip 720p от New-Team

marya111

446 | 23

2.17 ГБ

В этой теме нет новых непрочитанных сообщений. Частное пионерское 2 [детский, приключения, семейный, 2015] WEB-DLRip

salma3

308 | 71

1.46 ГБ

В этой теме нет новых непрочитанных сообщений. Частное пионерское 2 [приключения, семейный, 2015] DVB

salma3

676 | 62

1.26 ГБ

В этой теме нет новых непрочитанных сообщений. Частное пионерское 2 (2015) HDRip от Scarabey | iTunes

marya111

203 | 15

1.45 ГБ

В этой теме нет новых непрочитанных сообщений. Частное пионерское (2013) HDTVRip от Scarabey

marya111

122 | 10

1.45 ГБ


Начать новую тему Ответить на тему  [ 1 сообщение ] 




Для Мосгорсуда, Роскомнадзора и рекламодателей:: mosgorsud-torrent[собачка]yandex.ru