COVID-19 - Последняя информация о коронавирусе на сайте Минздрава




Торрент файл
скачать торрент магнет ссылка Добавлен: 13 июл 2014, 16:36
Размер: 464.24 МБ
Сидеров: 0
Личеров: 3
Статус: (Aleksandr.ru)
Автор

СообщениеДобавлено: 13 июл 2014, 16:36 

Не в сети
Супермодератор
Аватара пользователя
Дата регистрации:
22 май 2010, 12:40
Спасибо: 2220 / 105
Сообщения: 2961
Откуда: Н.Новгород
Тимур Шаов / Перспективы

Жанр: Авторская песня
Страна-производитель диска: Россия
Год издания: 2013
Издатель (лейбл): ООО МКИЦ "Музпром-Продакшн", Москва
Страна: Россия
Аудиокодек: FLAC (*.flac)
Тип рипа: image+.cue
Битрейт аудио: lossless
Продолжительность: 1:18:54
Источник (релизер): Собственный диск
Наличие сканов в содержимом раздачи: нет
Треклист:
1. Перспективы (5:22)
2. Предостережение (4:43)
3. Прогулка (5:48)
4. Конец эпохи романтизма (6:43)
5. Когда меня покажут по ТВ (4:17)
6. Моя любимая (4:32)
7. Конец света, или предсказания майя (6:05)
8. Ай Пи, Ай Ти, Три Джи (4:22)
9. Афоризмы, выписки, цитаты (4:26)
10. Блондинки и брюнетки (4:49)
11. Откуда есть пошла модернизация на Руси (музыкальная сказка с хорошим концом) (27:57)
Лог создания рипа
Код:
Exact Audio Copy V1.0 beta 3 from 29. August 2011

Отчёт EAC об извлечении, выполненном 10. февраля 2013, 22:39

Тимур Шаов / Перспективы

Дисковод: PLEXTOR DVDR   PX-755A   Adapter: 1  ID: 0

Режим чтения                 : Достоверность
Использование точного потока : Да
Отключение кэша аудио        : Да
Использование указателей C2  : Нет

Коррекция смещения при чтении                     : 30
Способность читать области Lead-in и Lead-out     : Нет
Заполнение пропущенных сэмплов тишиной            : Да
Удаление блоков с тишиной в начале и конце        : Нет
При вычислениях CRC использовались нулевые сэмплы : Да
Интерфейс                                         : Встроенный Win32-интерфейс для Win NT/2000

Выходной формат          : Пользовательский кодировщик
Выбранный битрейт        : 128 kBit/s
Качество                 : Высокий
Добавление ID3-тега      : Нет
Утилита сжатия           : C:\Program Files\Exact Audio Copy\Flac\flac.exe
Дополнительные параметры : -V -8 -T "Date=%year%" -T "Genre=%genre%" %source%

TOC извлечённого CD

     Трек |   Старт  | Длительность | Начальный сектор | Конечный сектор
    ---------------------------------------------------------------------
       1  |  0:00.00 |    5:20.38   |           0      |      24037
       2  |  5:20.38 |    4:41.43   |       24038      |      45155
       3  | 10:02.06 |    5:50.00   |       45156      |      71405
       4  | 15:52.06 |    6:42.62   |       71406      |     101617
       5  | 22:34.68 |    4:15.74   |      101618      |     120816
       6  | 26:50.67 |    4:34.07   |      120817      |     141373
       7  | 31:24.74 |    6:07.40   |      141374      |     168938
       8  | 37:32.39 |    4:15.00   |      168939      |     188063
       9  | 41:47.39 |    4:26.52   |      188064      |     208065
      10  | 46:14.16 |    4:46.61   |      208066      |     229576
      11  | 51:01.02 |   27:53.04   |      229577      |     355055

Характеристики диапазона извлечения и сообщения об ошибках

Выбранный диапазон

     Имя файла C:\Program Files\Exact Audio Copy\Flac\Тимур Шаов - Перспективы_.wav

     Пиковый уровень 100.0 %
     Скорость извлечения 2.4 X
     Качество диапазона 100.0 %
     CRC теста 03B3E4E2
     CRC копии 03B3E4E2
     Копирование... OK

Ошибок не произошло

Конец отчёта

==== Контрольная сумма отчёта 72D2E95BA78470C98CB596D277AF3517E18E5E3402E5D50FC4FF3B859D32E993 ====
Содержание индексной карты (.CUE)
Код:
REM GENRE "Авторская песня"
REM DATE 2013
REM DISCID 94127E0B
REM COMMENT "ExactAudioCopy v1.0b3"
PERFORMER "Тимур Шаов"
TITLE "Перспективы"
FILE "Тимур Шаов - Перспективы.flac" WAVE
  TRACK 01 AUDIO
    TITLE "Перспективы"
    PERFORMER "Тимур Шаов"
    INDEX 01 00:00:00
  TRACK 02 AUDIO
    TITLE "Предостережение"
    PERFORMER "Тимур Шаов"
    INDEX 00 05:18:38
    INDEX 01 05:20:38
  TRACK 03 AUDIO
    TITLE "Прогулка"
    PERFORMER "Тимур Шаов"
    INDEX 00 10:00:06
    INDEX 01 10:02:06
  TRACK 04 AUDIO
    TITLE "Конец эпохи романтизма"
    PERFORMER "Тимур Шаов"
    INDEX 00 15:50:06
    INDEX 01 15:52:06
  TRACK 05 AUDIO
    TITLE "Когда меня покажут по ТВ"
    PERFORMER "Тимур Шаов"
    INDEX 00 22:32:68
    INDEX 01 22:34:68
  TRACK 06 AUDIO
    TITLE "Моя любимая"
    PERFORMER "Тимур Шаов"
    INDEX 00 26:48:67
    INDEX 01 26:50:67
  TRACK 07 AUDIO
    TITLE "Конц света, или предсказания майя"
    PERFORMER "Тимур Шаов"
    INDEX 00 31:22:74
    INDEX 01 31:24:74
  TRACK 08 AUDIO
    TITLE "Ай Пи, Ай Ти, Три Джи"
    PERFORMER "Тимур Шаов"
    INDEX 00 37:30:39
    INDEX 01 37:32:39
  TRACK 09 AUDIO
    TITLE "Афоризмы, выписки, цитаты"
    PERFORMER "Тимур Шаов"
    INDEX 00 41:45:39
    INDEX 01 41:47:39
  TRACK 10 AUDIO
    TITLE "Блондинки и брюнетки"
    PERFORMER "Тимур Шаов"
    INDEX 00 46:12:16
    INDEX 01 46:14:16
  TRACK 11 AUDIO
    TITLE "Откуда есть пошла модернзиация на Руси (музыкальная сказка с хорошим концом)"
    PERFORMER "Тимур Шаов"
    INDEX 00 50:59:02
    INDEX 01 51:01:02
15.02.2013 - Торрент перезалит. Добавлены сканы обложки и диска. Перекачайте torrent-файл!



Скачать книги и аудио книги через торрент


Вернуться к началу
 Профиль Отправить личное сообщение  
 
   Похожие торренты   Автор   Торрент   Размер 
В этой теме нет новых непрочитанных сообщений. Sepultura - Arise (FLAC) [Thrash, 1991] FLAC (image+.cue), lossless

Redscarf

0 | 0

312.41 МБ

В этой теме нет новых непрочитанных сообщений. W.A.S.P. - Dominator (FLAC) [Heavy Metal, 2007] FLAC (image+.cue), lossless

Redscarf

0 | 0

326.62 МБ

В этой теме нет новых непрочитанных сообщений. Green Day - Insomniac (FLAC) [Pop-Punk, 1995] FLAC (image+.cue), lossless

Redscarf

0 | 0

271.75 МБ

В этой теме нет новых непрочитанных сообщений. AC/DC - Powerage [Hard Rock, 1978] FLAC (image+.cue), lossless

Redscarf

1 | 0

294.06 МБ

В этой теме нет новых непрочитанных сообщений. KMFDM - WWIII [Industrial Metal, 2003] FLAC (image+.cue), lossless

Redscarf

0 | 0

383.72 МБ

В этой теме нет новых непрочитанных сообщений. Mudvayne - The End Of All Things To Come [Nu Metal, 2002] FLAC (image+.cue), lossless

Redscarf

1 | 0

386.32 МБ

В этой теме нет новых непрочитанных сообщений. Slayer - Undisputed Attitude [Crossover Thrash, 1996] FLAC (image+.cue), lossless

Redscarf

0 | 0

245.36 МБ


Начать новую тему Ответить на тему  [ 1 сообщение ] 




Для Мосгорсуда, Роскомнадзора и рекламодателей:: rstracker[собака]yandex.ru
cron