Торрент файл
скачать торрент магнет ссылка Добавлен: 27 апр 2021, 15:08
Размер: 3.7 ГБ
Сидеров: 3
Личеров: 0
Автор

СообщениеДобавлено: 27 апр 2021, 15:08 

Не в сети
Аватара пользователя
Дата регистрации:
09 авг 2014, 12:07
Спасибо: 76 / 1
Сообщения: 427
Откуда: КРАСНОГОРСК
Пара из будущего / Couple from the future

Год выпуска: 2021
Выпущено: Россия, Студия Тритэ
Жанр: Комедия, фантастика, мелодрама
Продолжительность 01:40:18

Озвучка #1: - Оригинал - Русский


Релиз Без Рекламы



Режиссер: Алексей Нужный

В ролях: Сергей Бурунов, Мария Аронова, Денис Парамонов, Дарья Коныжева, Сергей Стёпин, Павел Мисаилов, Ирина Горбачёва, Серафима Красникова


Недалекое будущее, 2040 год. Евгений и Александра 20 лет в браке, их отношения похожи на высохший урюк. Развестись у них тоже не получается, поскольку в будущем расторжение брака – очень дорогая услуга. Но судьба дает им шанс: Евгений и Александра попадают в прошлое, в тот самый день 20 лет назад, когда влюбленный и юный Женя сделал предложение прелестной Саше. Теперь пара из будущего хочет разлучить самих себя в молодости, но это будет непросто. Молодые будут сражаться за свою любовь.



Качество : WEB-DLRip - HEVC 10bit - 1080p

Формат: MKV

Видео кодек: H265

Видео: 4744 Кбит/сек,1920х800 , (2.40.1),в 25.000 кадр/сек, HEVC (Main10@L5.2@Main)

Аудио Кодек: AC3

Аудио #1: Original@DD5.1 AC3 , 320 Kbps, 48.0 KHz, 6 ch6 ch - Оригинал - Русский


Звуковая дорожка сделана путем наложения чистого голоса озвучивателей на центральный канал оригинальной дорожки. Качество идентично звуковой дорожке.


Общее
Уникальный идентификатор : 315086244057948643074358453719126839196 (0xED0B673B5D26BC27872D42878FC10F9C)
Полное имя : F:\Пара из будущего - Couple from the future\2021_Couple from the future_HEVC- 10Bit_DD5.1_N.B_HD_1080_Rus\2021_Couple from the future_HEVC- 10Bit__DD5.1_N.B_HD_1080_Rus.mkv
Формат : Matroska
Версия формата : Version 4
Размер файла : 3,55 Гбайт
Продолжительность : 1 ч. 40 м.
Общий поток : 5 066 Кбит/сек
Название фильма : 2021 Couple from the future @ Nikolai.Baranov & PIRATIYA
Дата кодирования : UTC 2021-04-27 06:35:09
Программа кодирования : mkvmerge v56.1.0 ('My Friend') 64-bit
Библиотека кодирования : libebml v1.4.2 + libmatroska v1.6.4

Видео
Идентификатор : 1
Формат : HEVC
Формат/Информация : High Efficiency Video Coding
Профиль формата : Main 10@L5.2@Main
Идентификатор кодека : V_MPEGH/ISO/HEVC
Продолжительность : 1 ч. 40 м.
Битрейт : 4 744 Кбит/сек
Ширина : 1 920 пикселей
Высота : 800 пикселей
Соотношение сторон : 2,40:1
Режим частоты кадров : Постоянный
Частота кадров : 25,000 кадров/сек
Цветовое пространство : YUV
Субдискретизация насыщенности : 4:2:0
Битовая глубина : 10 бит
Бит/(Пиксели*Кадры) : 0.124
Размер потока : 3,32 Гбайт (94%)
Заголовок : 2021_Couple from the future_HEVC- 10Bit__DD5.1_N.B_HD_1080_Rus
Язык : Russian
Default : Да
Forced : Нет
Цветовой диапазон : Full
Основные цвета : BT.709
Характеристики трансфера : BT.709
Коэффициенты матрицы : BT.709

Аудио
Идентификатор : 2
Формат : AC-3
Формат/Информация : Audio Coding 3
Коммерческое название : Dolby Digital
Идентификатор кодека : A_AC3
Продолжительность : 1 ч. 40 м.
Вид битрейта : Постоянный
Битрейт : 320 Кбит/сек
Каналы : 6 каналов
Channel layout : L R C LFE Ls Rs
Частота : 48,0 КГц
Частота кадров : 31,250 кадров/сек (1536 SPF)
Метод сжатия : С потерями
Размер потока : 230 Мбайт (6%)
Заголовок : Russian @DD5.1 AC3, 320 Kbps, 48.0 KHz, 6 ch
Язык : Russian
Service kind : Complete Main
Default : Да
Forced : Нет

Меню
00:00:00.000 : ru:Глава 01 / ru:Глава 01












Релиз от: Nikolai.Baranov & PIRATIYAПоблагодарить:
ЯД: 410017546713876








Время раздачи : 24/7


_________________

Легко быть оптимистом, когда судьба не валит с ног тяжелыми ударами, а лишь иногда легонько шлепает по заднице.


Вернуться к началу
 Профиль Отправить личное сообщение  
 
   Похожие торренты   Автор   Торрент   Размер 
В этой теме нет новых непрочитанных сообщений. Трансеры / Полицейский будущего / Trancers / Future Cop [Фантастика, Боевик, 1984] BDRemux 1080p, Dvo

salma3

0 | 1

18.05 ГБ

В этой теме нет новых непрочитанных сообщений. Трансеры 3: Дет жив / Полицейские будущего / Trancers 3: Deth Lives / Future Cop [Фантастика, Боевик, 1992] BDRemux 1080p, Dvo

salma3

0 | 1

16.36 ГБ

В этой теме нет новых непрочитанных сообщений. Трансеры 2: Возвращения Джека Дета / Полицейские будущего / Trancers II: The Return of Jack Deth / Future Cop [Фантастика, Боевик, 1991] BDRemux 1080p, Dvo

salma3

1 | 0

17.63 ГБ

В этой теме нет новых непрочитанных сообщений. Российская семейная пара транслирует в чат свои потрахушки / Russian Family Couple in Porn Chat [2021 г., Adult Chat, Homemade, Amateur, Young, Small Tits, Bald Pussy, Brunette, Handjob, Fingering, Cunnilingus, Oral, Blowjob, Russian, WEBCa

BaLaMuT

1 | 0

1.87 ГБ

В этой теме нет новых непрочитанных сообщений. Матрица: Воскрешение / The Matrix Resurrections [Фантастика, боевик, 2021] WEB-DLRip-HEVC 1080p, Mvo [Jaskier]

salma3

0 | 0

2.47 ГБ

В этой теме нет новых непрочитанных сообщений. Знахарь-2 / The Medicine Man-2 (Сезон 2 , Серия 1- 16 из 16 ) ( Ярослав Мочалов) [2021, Мелодрама, WEB-DLRip - HEVC - 1080p]

Враг Нароода

1 | 0

18.04 ГБ

В этой теме нет новых непрочитанных сообщений. Длинный уик-энд / Long Weekend [Мелодрама, комедия, 2021] WEB-DLRip, Mvo [iTunes]

salma3

10 | 0

1.46 ГБ


Начать новую тему Ответить на тему  [ 1 сообщение ] 




Для Мосгорсуда, Роскомнадзора и рекламодателей:: rstracker[собака]yandex.ru
cron