COVID-19 - Последняя информация о коронавирусе на сайте Минздрава




Торрент файл
скачать торрент магнет ссылка Добавлен: 03 апр 2021, 11:04
Размер: 2.48 ГБ
Сидеров: 235
Личеров: 6
Статус: (salma3)
Автор

СообщениеДобавлено: 03 апр 2021, 11:04 

Не в сети
Супермодератор
Аватара пользователя
Дата регистрации:
15 фев 2012, 16:44
Возраст: 31
Спасибо: 8283 / 2148
Сообщения: 96785
Год выпуска: 2021
Жанр: Приключения, семейный, фэнтези
Режиссер: Олег Погодин

В ролях: Антон Шагин, Павел Деревянко, Михаил Ефремов, Паулина Андреева, Ян Цапник, Олег Тактаров, Татьяна Захарова, Владимир Дикун, Виталий Копнин, Екатерина Байгозина, Алина Недобитко, Юрий Жаравин, Павел Стонт, Андрей Феськов, Виталия Корниенко


Иван - не царевич, не богатырь, не красавец, а старшие братья и вовсе его дураком считают. Но всё меняется, когда у Ивана появляется друг и верный помощник - Конёк-Горбунок. Пусть он ростом невелик, зато умный и смелый. С таким другом никакой враг не страшен. Ну, почти никакой. С таким помощником и ничего невозможного нет. Ну, почти, нет. Ивану с Коньком предстоит проверить свою дружбу на прочность, столкнуться с коварным противником, преодолеть невероятные испытания и встретить такую любовь, ради которой стоит рискнуть всем. Ну, почти всем.



Страна: Россия
Продолжительность: 01:51:12
Перевод: Не требуется

Файл
Кодек: H.264
Качество: WEB-DLRip 720p
Видео: 1280x690 (1.85:1), 3000 kbps, 24.000 fps
Звук: Русский (AAC, 2ch, 192 kbps)



x264 [info]: frame I:1290 Avg QP:16.13 size:110768
x264 [info]: frame P:47485 Avg QP:19.00 size: 30840
x264 [info]: frame B:111375 Avg QP:21.58 size: 8022
x264 [info]: consecutive B-frames: 7.3% 6.3% 13.8% 35.7% 17.1% 15.1% 1.2% 0.5% 0.1% 2.5% 0.3%

General
Unique ID : 203232097089073234022981672932439386724 (0x98E51401463FFD87353CF21469826A64)
Complete name : E:КИНОРУТОРКонёк-Горбунок (2021).mkv
Format : Matroska
Format version : Version 4
File size : 2.48 GiB
Duration : 1 h 51 min
Overall bit rate : 3 193 kb/s
Movie name : Конёк-Горбунок (2021) - #LORDKILL#
Encoded date : UTC 2021-04-03 05:26:08
Writing application : mkvmerge v32.0.0 ('Astral Progressions') 64-bit
Writing library : libebml v1.3.7 + libmatroska v1.5.0

Video
ID : 1
Format : AVC
Format/Info : Advanced Video Codec
Format profile : High@L4.1
Format settings : CABAC / 12 Ref Frames
Format settings, CABAC : Yes
Format settings, Reference : 12 frames
Codec ID : V_MPEG4/ISO/AVC
Duration : 1 h 51 min
Bit rate : 3 000 kb/s
Width : 1 280 pixels
Height : 690 pixels
Display aspect ratio : 1.85:1
Frame rate mode : Constant
Frame rate : 24.000 FPS
Color space : YUV
Chroma subsampling : 4:2:0
Bit depth : 8 bits
Scan type : Progressive
Bits/(Pixel*Frame) : 0.142
Stream size : 2.33 GiB (94%)
Writing library : x264 core 159 r2991 1771b55
Encoding settings : cabac=1 / ref=12 / deblock=1:-3:-3 / analyse=0x3:0x113 / me=umh / subme=10 / psy=1 / psy_rd=1.00:0.20 / mixed_ref=1 / me_range=32 / chroma_me=1 / trellis=2 / 8x8dct=1 / cqm=0 / deadzone=21,11 / fast_pskip=0 / chroma_qp_offset=-3 / threads=22 / lookahead_threads=5 / sliced_threads=0 / nr=0 / decimate=1 / interlaced=0 / bluray_compat=0 / constrained_intra=0 / bframes=10 / b_pyramid=2 / b_adapt=2 / b_bias=0 / direct=3 / weightb=1 / open_gop=0 / weightp=2 / keyint=240 / keyint_min=23 / scenecut=40 / intra_refresh=0 / rc=2pass / mbtree=0 / bitrate=3000 / ratetol=1.0 / qcomp=0.60 / qpmin=0 / qpmax=69 / qpstep=4 / cplxblur=20.0 / qblur=0.5 / ip_ratio=1.40 / pb_ratio=1.30 / aq=1:1.00
Default : Yes
Forced : No

Audio
ID : 2
Format : AAC LC
Format/Info : Advanced Audio Codec Low Complexity
Codec ID : A_AAC-2
Duration : 1 h 51 min
Bit rate : 192 kb/s
Channel(s) : 2 channels
Channel layout : L R
Sampling rate : 48.0 kHz
Frame rate : 46.875 FPS (1024 SPF)
Compression mode : Lossy
Stream size : 153 MiB (6%)
Language : Russian
Default : Yes
Forced : No



_________________
Проголосуй за трекер Открытый торрент трекер - RUS-MEDIA.ORG

Проголосуй Открытый торрент трекер - RUS-MEDIA.ORG


Скачать книги и аудио книги через торрент


Вернуться к началу
 Профиль Отправить личное сообщение  
 
   Похожие торренты   Автор   Торрент   Размер 
В этой теме нет новых непрочитанных сообщений. Перси Джексон и похититель молний / Percy Jackson & the Olympians: The Lightning Thief [фэнтези, приключения, семейный, 2010] WEB-DLRip 720p, Dub [Open Matte]

salma3

0 | 0

5.11 ГБ

В этой теме нет новых непрочитанных сообщений. Лига справедливости Зака Снайдера / Zack Snyder's Justice League [Фантастика, фэнтези, боевик, 2021] WEB-DLRip, Mvo [TVShows]

salma3

9 | 0

2.94 ГБ

В этой теме нет новых непрочитанных сообщений. Эбигейл [приключения, фэнтези, семейный, 2019] WEB-DLRip [iTunes]

salma3

589 | 20

1.46 ГБ

В этой теме нет новых непрочитанных сообщений. Kenzie Reeves & Lulu Chu - Тренировка бить струей / Workout to Squirt Out (2021) WEB-DLRip 720p

zorgi

12 | 0

730.19 МБ

В этой теме нет новых непрочитанных сообщений. Azul Hermosa & Luna Star - Шаловливый нуру массаж / A Naughty Nuru Massage (2021) WEB-DLRip 720p

zorgi

1 | 17

1.2 ГБ

В этой теме нет новых непрочитанных сообщений. Ava Sinclaire & Lauren Phillips - Закрой рот и трахай меня / Shut Your Mouth And Fuck Me (2021) WEB-DLRip 720p

zorgi

0 | 0

1.09 ГБ

В этой теме нет новых непрочитанных сообщений. Violet Starr & Charlotte Stokely - Заучившаяся ботаничка трахает задиру однокурсницу / Nerd Fucks Her Bully (2021) WEB-DLRip 720p

zorgi

1 | 43

880.13 МБ


СообщениеДобавлено: 12 апр 2021, 12:46 

Не в сети
Аватара пользователя
Дата регистрации:
12 сен 2019, 17:32
Возраст: 43
Спасибо: 0 / 0
Сообщения: 6
Откуда: Indonesia
In Europe and America, they are called dirk tongue drums or tank drums. The glucophone has a pentatonic echo pattern in three octaves, so any notes, which were played, harmoniously look with each other. This means that to depict this thingumabob there is no demand to contain a musical education, it is adequacy to take a detect of rhythm. They be a party to b manipulate it with both hands and sticks (they are a gift for the sake the contrivance). The agency is a famous and budget-priced surrogate to the act in concert drum and is competent to charm anyone who even definitely touches its sounding.
The glucophone is fancied for the growth of hearing and beat, helps to weaken, adapt into meditation and plunge into the waves of lilting vibrations.
Glucophone is a very boyish euphonious instrument that appeared in the 2000s. Despite this, it has befit deeply accessible in the midst people of any age, because even a insignificant young gentleman can undertake it.


I invite you to stop in my site: http://steel-tongue-drum.info


Скачать книги и аудио книги через торрент


Вернуться к началу
 Профиль Отправить личное сообщение  
 

СообщениеДобавлено: 12 апр 2021, 15:04 

Не в сети
Аватара пользователя
Дата регистрации:
06 сен 2019, 23:44
Возраст: 33
Спасибо: 0 / 0
Сообщения: 5
Откуда: Colombia
A glucophone is a vibration of quality, taciturn calm, melodiousness wadding a space. The paramount processing and the relationship of hemispheres, petals (notes) and resonator gives an to the nth degree succulent palette of overtones. The deficiency of sharp euphonious atmosphere gravity makes any euphoniousness that was played, harmoniously. In appendix, the glucophone emits a vast amount of resonant ultrasonic shedding, which spiritually and physically charges the space. The union performance will think up a unique relationship expanse the participants of glucophony. Colossal glucophones with a diameter of 30 cm, a thickness of grit one's teeth is 3 mm, bass with a occult wish sound. Includes sticks.


I invite you to visit my site: http://steel-tongue-drum.info


Скачать книги и аудио книги через торрент


Вернуться к началу
 Профиль Отправить личное сообщение  
 
Начать новую тему Ответить на тему  [ Сообщений: 3 ] 




Для Мосгорсуда, Роскомнадзора и рекламодателей:: rstracker[собака]yandex.ru
cron