COVID-19 - Последняя информация о коронавирусе на сайте Минздрава




Торрент файл
скачать торрент магнет ссылка Добавлен: 03 мар 2021, 10:11
Размер: 5.68 ГБ
Сидеров: 32
Личеров: 0
Статус: (salma3)
Автор

СообщениеДобавлено: 03 мар 2021, 10:11 

Не в сети
Супермодератор
Аватара пользователя
Дата регистрации:
15 фев 2012, 16:44
Возраст: 31
Спасибо: 8283 / 2148
Сообщения: 96789
Год выхода: 2020
Жанр: Приключения, семейный, фэнтези
Режиссер: Дмитрий Дьяченко

В ролях: Виктор Хориняк, Мила Сивацкая, Екатерина Вилкова, Елена Яковлева, Константин Лавроненко, Сергей Бурунов, Елена Валюшкина, Кирилл Зайцев, Тимофей Трибунцев, Гарик Харламов и др.

О фильме: Во второй части зрители узнают об истоках древнего зла, с которым героям пришлось столкнуться в первом фильме, увидят новые уголки сказочного Белогорья, и станут свидетелями захватывающих схваток с участием былинных богатырей.



Страна: Россия
Продолжительность: 02:01:09
Перевод: Не требуется

Файл
Качество: WEBRip 1080p
Видео: MPEG-4 AVC, 1920x1080, 6480 kbps, 24,000 fps
Звук: русский, AAC, 2.0 ch, 48 kHz, 256 kbps

Общее
Уникальный идентификатор : 337849001325458364069771974499989145878 (0xFE2B59D037C54EF56CF89B1532F74916)
Полное имя : C:UtorrentPoslednijBogatyr2WEBRip1080p.mkv
Формат : Matroska
Версия формата : Version 4
Размер файла : 5,68 Гбайт
Продолжительность : 2 ч. 1 м.
Общий поток : 6 709 Кбит/сек
Дата кодирования : UTC 2021-03-02 20:16:32
Программа кодирования : mkvmerge v25.0.0 ('Prog Noir') 64-bit
Библиотека кодирования : libebml v1.3.6 + libmatroska v1.4.9

Видео
Идентификатор : 1
Формат : AVC
Формат/Информация : Advanced Video Codec
Профиль формата : High@L4
Настройки формата : CABAC / 4 Ref Frames
Параметр CABAC формата : Да
Параметр RefFrames формата : 4 кадра
Идентификатор кодека : V_MPEG4/ISO/AVC
Продолжительность : 2 ч. 1 м.
Битрейт : 6 480 Кбит/сек
Ширина : 1 920 пикселей
Высота : 1 080 пикселей
Соотношение сторон : 16:9
Режим частоты кадров : Постоянный
Частота кадров : 24,000 кадра/сек
Цветовое пространство : YUV
Субдискретизация насыщенности : 4:2:0
Битовая глубина : 8 бит
Тип развёртки : Прогрессивная
Бит/(Пиксели*Кадры) : 0.130
Размер потока : 5,46 Гбайт (96%)
Библиотека кодирования : x264 core 152
Настройки программы : cabac=1 / ref=2 / deblock=1:0:0 / analyse=0x3:0x113 / me=hex / subme=6 / psy=1 / psy_rd=1.00:0.00 / mixed_ref=1 / me_range=16 / chroma_me=1 / trellis=1 / 8x8dct=1 / cqm=0 / deadzone=21,11 / fast_pskip=1 / chroma_qp_offset=-2 / threads=12 / lookahead_threads=2 / sliced_threads=0 / nr=0 / decimate=1 / interlaced=0 / bluray_compat=0 / constrained_intra=0 / bframes=3 / b_pyramid=2 / b_adapt=1 / b_bias=0 / direct=1 / weightb=1 / open_gop=0 / weightp=1 / keyint=250 / keyint_min=24 / scenecut=40 / intra_refresh=0 / rc_lookahead=30 / rc=abr / mbtree=1 / bitrate=6480 / ratetol=1.0 / qcomp=0.60 / qpmin=0 / qpmax=69 / qpstep=4 / vbv_maxrate=7776 / vbv_bufsize=15552 / nal_hrd=none / filler=0 / ip_ratio=1.40 / aq=1:1.00
Язык : Russian
Default : Да
Forced : Нет
Цветовой диапазон : Limited
Основные цвета : BT.709
Характеристики трансфера : BT.709
Коэффициенты матрицы : BT.709

Аудио
Идентификатор : 2
Формат : AAC LC
Формат/Информация : Advanced Audio Codec Low Complexity
Идентификатор кодека : A_AAC-2
Продолжительность : 2 ч. 1 м.
Битрейт : 256 Кбит/сек
Каналы : 2 канала
Channel layout : L R
Частота : 48,0 КГц
Частота кадров : 46,875 кадров/сек (1024 SPF)
Метод сжатия : С потерями
Размер потока : 222 Мбайт (4%)
Язык : Russian
Default : Да
Forced : Нет


Релиз от:


_________________
Проголосуй за трекер Открытый торрент трекер - RUS-MEDIA.ORG

Проголосуй Открытый торрент трекер - RUS-MEDIA.ORG


Скачать книги и аудио книги через торрент


Вернуться к началу
 Профиль Отправить личное сообщение  
 
   Похожие торренты   Автор   Торрент   Размер 
В этой теме нет новых непрочитанных сообщений. Последний богатырь: Корень зла [Приключения, семейный, фэнтези, 2020] WEBRip

salma3

14 | 1

1.46 ГБ

В этой теме нет новых непрочитанных сообщений. Удивительное путешествие доктора Дулиттла / Dolittle [Фэнтези, комедия, приключения, 2020] WEBRip 1080p, Mvo

salma3

0 | 0

3.81 ГБ

В этой теме нет новых непрочитанных сообщений. Темные начала / His Dark Materials [S01] [Фэнтези, драма, приключения, семейный, 2019] WEBRip 1080p, Mvo [Profix Media]

Haint

1 | 0

19.14 ГБ

В этой теме нет новых непрочитанных сообщений. Фантастические твари: Преступления Грин-де-Вальда / Fantastic Beasts: The Crimes of Grindelwald [Фэнтези, приключения, семейный, 2018] WEBRip 1080p, Mvo

salma3

4375 | 299

6.57 ГБ

В этой теме нет новых непрочитанных сообщений. Удивительное путешествие доктора Дулиттла / Dolittle (Стивен Гейган) [ 2020, Приключения, комедия, семейный, фэнтези, экранизация,BluRay - HEVC 1080p] DUB+[HDrezka+Ukr +ENG]+[Subs Rus+Ukr+ENG]

Враг Нароода

0 | 0

6.01 ГБ

В этой теме нет новых непрочитанных сообщений. Последний акулий торнадо: Как раз во время / The Last Sharknado: It's About Time [Ужасы, фантастика, фэнтези, 2018] WEBRip 1080p, Dvo [LakeFilms]

salma3

61 | 9

2.52 ГБ

В этой теме нет новых непрочитанных сообщений. Бой с тенью 3D: Последний раунд [боевик, драма, криминал, приключения, 2011] WEBRip 1080p | Open Matte

NTL

0 | 0

4.9 ГБ


Начать новую тему Ответить на тему  [ 1 сообщение ] 




Для Мосгорсуда, Роскомнадзора и рекламодателей:: rstracker[собака]yandex.ru
cron