Торрент файл
скачать торрент магнет ссылка Добавлен: 24 май 2020, 14:21
Размер: 5.59 ГБ
Сидеров: 0
Личеров: 0
Автор

СообщениеДобавлено: 24 май 2020, 14:21 

Не в сети
Дата регистрации:
25 июл 2019, 06:17
Спасибо: 60 / 2
Сообщения: 3089
Информация о фильме
Название: Брестская крепость
Год выхода: 2010
Жанр: Драма, военный, история
Режиссер: Александр Котт
В ролях: Алексей Копашов, Андрей Мерзликин, Павел Деревянко, Александр Коршунов, Максим Костромыкин, Анна Цуканова-Котт, Сергей Цепов, Беник Аракелян, Михаил Павлик, Александр Сирин, Евгений Цыганов, Татьяна Камина, Вероника Никонова, Яна Есипович, Мадлен Джабраилова, Дмитрий Куличков, Александр Сапцов, Кирилл Болтаев, Олег Лопухов, Анатолий Кот, Нодар Джанелидзе, Максим Кречетов, Дмитрий Есеневич, Максим Литовченко, Валерий Иваков, Виктор Стрельченко, Матвей Шкуратов, Юрий Анпилогов, Антон Старовойтов, Николай Рябычин, Глеб Демьянчук, Сергей Прокопич, Юлия Полубинская, Александр Пашков, Павел Городницкий, Евгений Сангаджиев, Михаил Евланов, Сергей Таланов

Описание: Фильм рассказывает о героической обороне Брестской крепости, которая приняла на себя первый удар немецких фашистских захватчиков 22 июня 1941 года. С документальной точностью описываются события, происходившие в первые дни обороны. Фильм рассказывает о главных трёх очагах сопротивления, возглавляемых командиром полка Петром Гавриловым, комиссаром Ефимом Фоминым и начальником 9-й погранзаставы Андреем Кижеватовым.

Выпущено: Россия, Беларусь / Беларусьфильм, Централ Партнершип
Продолжительность: 02:18:18
Язык: Русский



Файл
Кодек: MKV
Качество: BDRip 720p
Видео: H.264, 1280x544, 24fps, 5225 Kb/s
Звук: 48KHz, AC3, 448 Kb/s (6 ch)
Субтитры: Русские

Скриншоты:


Format : Matroska
File size : 5.59 GiB
Duration : 2h 18mn
Overall bit rate : 5 788 Kbps
Movie name : Брестская крепость / Brestskaya Krepost (2010)
Encoded date : UTC 2011-05-16 06:00:08
Writing application : mkvmerge v3.3.0 ('Language') built on Mar 24 2010 14:59:24
Writing library : libebml v0.8.0 + libmatroska v0.9.0

Video
ID : 1
Format : AVC
Format/Info : Advanced Video Codec
Format profile : High@L4.1
Format settings, CABAC : Yes
Format settings, ReFrames : 6 frames
Codec ID : V_MPEG4/ISO/AVC
Duration : 2h 18mn
Bit rate mode : Variable
Bit rate : 5 225 Kbps
Width : 1 280 pixels
Height : 544 pixels
Display aspect ratio : 2.35:1
Frame rate : 24.000 fps
Color space : YUV
Chroma subsampling : 4:2:0
Bit depth : 8 bits
Scan type : Progressive
Bits/(Pixel*Frame) : 0.313
Stream size : 5.05 GiB (90%)
Title : Encoded by GYN

Audio
ID : 2
Format : AC-3
Format/Info : Audio Coding 3
Mode extension : CM (complete main)
Codec ID : A_AC3
Duration : 2h 18mn
Bit rate mode : Constant
Bit rate : 448 Kbps
Channel(s) : 6 channels
Channel positions : Front: L C R, Side: L R, LFE
Sampling rate : 48.0 KHz
Bit depth : 16 bits
Compression mode : Lossy
Stream size : 443 MiB (8%)
Title : Original
Language : Russian

Text
ID : 3
Format : UTF-8
Codec ID : S_TEXT/UTF8
Codec ID/Info : UTF-8 Plain Text
Language : Russian



Вернуться к началу
 Профиль Отправить личное сообщение  
 
   Похожие торренты   Автор   Торрент   Размер 
В этой теме нет новых непрочитанных сообщений. Адмиралъ (Андрей Кравчук) [2008 г., драма, история, военный, BDRip 720p] Лицензия

zorgi

1 | 0

6.8 ГБ

В этой теме нет новых непрочитанных сообщений. Волынь / Wolyn (Войчех Смажовски) [2016 г., военный, история, драма, BDRip-HEVC 720p] A

zorgi

12 | 2

3.45 ГБ

В этой теме нет новых непрочитанных сообщений. Царство / Kingdom [боевик, военный, история, 2019] BDRip 720p, Dub [iTunes]

salma3

0 | 0

6.32 ГБ

В этой теме нет новых непрочитанных сообщений. В тылу врага / Вражеские линии / Enemy Lines [Военный, история, 2020] BDRip 720p, Dub [iTunes]

salma3

0 | 0

4.53 ГБ

В этой теме нет новых непрочитанных сообщений. Секретное оружие [Военный, драма, 2019] BDRip [Лицензия]

salma3

61 | 2

1.46 ГБ

В этой теме нет новых непрочитанных сообщений. Ополченочка (Алексей Козлов) [2019 г., История, военный, WEB-DLRip 720p]

zorgi

5 | 0

2.18 ГБ

В этой теме нет новых непрочитанных сообщений. Царство / Kingdom [боевик, военный, история, 2019] BDRip, Dub [iTunes]

salma3

37 | 13

1.46 ГБ


Начать новую тему Ответить на тему  [ 1 сообщение ] 




Для Мосгорсуда, Роскомнадзора и рекламодателей:: rstracker[собака]yandex.ru
cron