COVID-19 - Последняя информация о коронавирусе на сайте Минздрава




Торрент файл
скачать торрент магнет ссылка Добавлен: 22 фев 2018, 21:40
Размер: 33.84 ГБ
Сидеров: 1
Личеров: 4
Статус: (salma3)
Автор

СообщениеДобавлено: 22 фев 2018, 21:40 

Не в сети
Супермодератор
Аватара пользователя
Дата регистрации:
15 фев 2012, 16:44
Возраст: 31
Спасибо: 8277 / 2148
Сообщения: 96623
Год выхода: 2011
Жанр: Драма, военный
Режиссер: Никита Михалков

В ролях: Н. Михалков, О. Меньшиков, Н. Михалкова, С. Маковецкий, Д. Дюжев, А. Смольянинов, А. Мерзликин, М. Суханов, Е. Миронов, В. Толстоганова, Е. Стычкин, А. Панин, С. Гармаш, А. Михалков, В. Золотухин, А. Голубев, М. Шукшина, Н. Суркова, А. Пашутин, В. Гафт, А. Петренко, А. Адабашьян, А.

О фильме:
Вторая мировая война искалечила и унесла жизни многих советских людей. В центре сюжета хорошо известный, особенно зрителям старшего поколения, комдив Котов. Его доброе имя утеряно, казалось навеки. Героя обвинили в предательстве, страшном преступлении, измене Родине и шпионаже на стороне неприятеля. Дома его считают погибшим, а любимая Маруся растит сына с другим мужчиной. Идёт 1943 год, самый разгар военных сражений. Нашей армии нужно совершить небывалый рывок, чтобы не просто отстоять родную землю, а оттеснить захватчика. Для этого нужно взять штурмом хорошо укреплённый форпост, в народе получивший название Цитадель. Это стратегическая точка считается и по факту является неприступной. Командование решает сломать это убеждение и направляет туда уклонистов.



Страна: Россия
Продолжительность: 02:36:54

Файл
Кодек: MPEG-4 AVC
Качество: BDRemux 1080p
Видео: 1920x1080, 27,3 Мбит/с, 24 кадр/с
Звук: DTS-HD MA, 6 каналов, 3589 Кбит/с
Общее
Уникальный идентификатор : 19389385253030606100716522666620490727 (0xE96428009C47F8D7EB303DA713E13E7)
Полное имя : D:УТОМЛЁННЫЕ СОЛНЦЕМ 2 - ЦИТАДЕЛЬ.mkv
Формат : Matroska
Версия формата : Version 4 / Version 2
Размер файла : 33,8 Гбайт
Продолжительность : 2 ч. 36 м.
Режим общего битрейта : Переменный
Общий поток : 30,9 Мбит/сек
Дата кодирования : UTC 2018-02-21 23:43:54
Программа кодирования : mkvmerge v20.0.0 ('I Am The Sun') 64-bit
Библиотека кодирования : libebml v1.3.5 + libmatroska v1.4.8

Видео
Идентификатор : 1
Формат : AVC
Формат/Информация : Advanced Video Codec
Профиль формата : High@L4.1
Настройки формата : CABAC / 4 Ref Frames
Параметр CABAC формата : Да
Параметр RefFrames формата : 4 кадра
Идентификатор кодека : V_MPEG4/ISO/AVC
Продолжительность : 2 ч. 36 м.
Вид битрейта : Переменный
Битрейт : 27,3 Мбит/сек
Максимальный битрейт : 33,0 Мбит/сек
Ширина : 1920 пикселей
Высота : 1080 пикселей
Соотношение сторон : 16:9
Режим частоты кадров : Постоянный
Частота кадров : 24,000 кадра/сек
Цветовое пространство : YUV
Субдискретизация насыщенности : 4:2:0
Битовая глубина : 8 бит
Тип развёртки : Прогрессивная
Бит/(Пиксели*Кадры) : 0.548
Размер потока : 29,9 Гбайт (88%)
Default : Да
Forced : Нет
Цветовой диапазон : Limited
Основные цвета : BT.709
Характеристики трансфера : BT.709
Коэффициенты матрицы : BT.709

Аудио
Идентификатор : 2
Формат : DTS
Формат/Информация : Digital Theater Systems
Профиль формата : MA / Core
Идентификатор кодека : A_DTS
Продолжительность : 2 ч. 36 м.
Вид битрейта : Переменный / Постоянный
Битрейт : 3589 Кбит/сек / 1509 Кбит/сек
Каналы : 6 каналов
Расположение каналов : Front: L C R, Side: L R, LFE
Частота : 48,0 КГц
Частота кадров : 93,750 кадра/сек (512 SPF)
Битовая глубина : 24 бит
Метод сжатия : Без потерь / Lossy
Размер потока : 3,93 Гбайт (12%)
Язык : Russian
Default : Нет
Forced : Нет


_________________
Проголосуй за трекер Открытый торрент трекер - RUS-MEDIA.ORG

Проголосуй Открытый торрент трекер - RUS-MEDIA.ORG


Скачать книги и аудио книги через торрент


Вернуться к началу
 Профиль Отправить личное сообщение  
 
   Похожие торренты   Автор   Торрент   Размер 
В этой теме нет новых непрочитанных сообщений. Утомлённые солнцем 2: Цитадель [Драма, военный, 2011] BDRemux 1080p

salma3

3 | 5

18.8 ГБ

В этой теме нет новых непрочитанных сообщений. Ливан / Lebanon [Драма, военный, 2009] BDRemux 1080p, Dub

salma3

21 | 7

13.2 ГБ

В этой теме нет новых непрочитанных сообщений. Касабланка / Casablanca [Драма, мелодрама, военный, 1942] BDRemux 1080p, Mvo

salma3

0 | 1

22.37 ГБ

В этой теме нет новых непрочитанных сообщений. Братья / Brothers [Триллер, драма, военный, 2009] BDRemux 1080p, Mvo

salma3

8 | 3

20.42 ГБ

В этой теме нет новых непрочитанных сообщений. Исключение / The Exception [Драма, мелодрама, военный, 2016] BDRemux 1080p, Mvo [iTunes]

salma3

0 | 0

16.21 ГБ

В этой теме нет новых непрочитанных сообщений. МакАртур / MacArthur [драма, военный, биография, история, 1977] BDRemux 1080p, Mvo

salma3

0 | 0

28.57 ГБ

В этой теме нет новых непрочитанных сообщений. Последствия / The Aftermath [Драма, мелодрама, военный, 2019] BDRemux 1080p, Dub [iTunes]

salma3

0 | 0

25.71 ГБ


Начать новую тему Ответить на тему  [ 1 сообщение ] 




Для Мосгорсуда, Роскомнадзора и рекламодателей:: rstracker[собака]yandex.ru
cron