Торрент файл
скачать торрент магнет ссылка Добавлен: 22 фев 2018, 21:40
Размер: 18.8 ГБ
Сидеров: 3
Личеров: 5
Статус: (salma3)
Автор

СообщениеДобавлено: 22 фев 2018, 21:40 

Не в сети
Супермодератор
Аватара пользователя
Дата регистрации:
15 фев 2012, 16:44
Возраст: 29
Спасибо: 7328 / 2147
Сообщения: 73276
Год выхода: 2011
Жанр: Драма, военный
Режиссер: Никита Михалков

В ролях: Н. Михалков, О. Меньшиков, Н. Михалкова, С. Маковецкий, Д. Дюжев, А. Смольянинов, А. Мерзликин, М. Суханов, Е. Миронов, В. Толстоганова, Е. Стычкин, А. Панин, С. Гармаш, А. Михалков, В. Золотухин, А. Голубев, М. Шукшина, Н. Суркова, А. Пашутин, В. Гафт, А. Петренко, А. Адабашьян, А.

О фильме:
Вторая мировая война искалечила и унесла жизни многих советских людей. В центре сюжета хорошо известный, особенно зрителям старшего поколения, комдив Котов. Его доброе имя утеряно, казалось навеки. Героя обвинили в предательстве, страшном преступлении, измене Родине и шпионаже на стороне неприятеля. Дома его считают погибшим, а любимая Маруся растит сына с другим мужчиной. Идёт 1943 год, самый разгар военных сражений. Нашей армии нужно совершить небывалый рывок, чтобы не просто отстоять родную землю, а оттеснить захватчика. Для этого нужно взять штурмом хорошо укреплённый форпост, в народе получивший название Цитадель. Это стратегическая точка считается и по факту является неприступной. Командование решает сломать это убеждение и направляет туда уклонистов.



Страна: Россия
Продолжительность: 02:37:08

Файл
Кодек: MPEG-4 AVC
Качество: BDRemux 1080p
Видео: 1920x1080, 14,5 Мбит/с, 24 кадр/с
Аудио 1: DTS-HD MA, 6 каналов, 2048 Кбит/с
Аудио 2: AC-3, 6 каналов, 640 Кбит/с

Общее
Уникальный идентификатор : 112366953675125750225533940795214963342 (0x5489168CB07C33CEA4503ADEF284A28E)
Полное имя : D:УТОМЛЁННЫЕ СОЛНЦЕМ 2 - ЦИТАДЕЛЬ.mkv
Формат : Matroska
Версия формата : Version 4 / Version 2
Размер файла : 18,8 Гбайт
Продолжительность : 2 ч. 37 м.
Режим общего битрейта : Переменный
Общий поток : 17,1 Мбит/сек
Дата кодирования : UTC 2018-02-22 15:50:15
Программа кодирования : mkvmerge v20.0.0 ('I Am The Sun') 64-bit
Библиотека кодирования : libebml v1.3.5 + libmatroska v1.4.8

Видео
Идентификатор : 1
Формат : AVC
Формат/Информация : Advanced Video Codec
Профиль формата : High@L4.1
Настройки формата : CABAC / 4 Ref Frames
Параметр CABAC формата : Да
Параметр RefFrames формата : 4 кадра
Параметр GOP формата : M=3, N=24
Идентификатор кодека : V_MPEG4/ISO/AVC
Продолжительность : 2 ч. 37 м.
Вид битрейта : Переменный
Битрейт : 14,5 Мбит/сек
Максимальный битрейт : 25,0 Мбит/сек
Ширина : 1920 пикселей
Высота : 1080 пикселей
Соотношение сторон : 16:9
Режим частоты кадров : Постоянный
Частота кадров : 24,000 кадра/сек
Стандарт вещания : NTSC
Цветовое пространство : YUV
Субдискретизация насыщенности : 4:2:0
Битовая глубина : 8 бит
Тип развёртки : Прогрессивная
Бит/(Пиксели*Кадры) : 0.291
Размер потока : 15,9 Гбайт (84%)
Default : Да
Forced : Нет
Цветовой диапазон : Limited
Основные цвета : BT.709
Характеристики трансфера : BT.709
Коэффициенты матрицы : BT.709

Аудио #1
Идентификатор : 2
Формат : DTS
Формат/Информация : Digital Theater Systems
Профиль формата : MA / Core
Идентификатор кодека : A_DTS
Продолжительность : 2 ч. 37 м.
Вид битрейта : Переменный / Постоянный
Битрейт : 2048 Кбит/сек / 1509 Кбит/сек
Каналы : 6 каналов
Расположение каналов : Front: L C R, Side: L R, LFE
Частота : 48,0 КГц
Частота кадров : 93,750 кадра/сек (512 SPF)
Битовая глубина : 16 бит
Метод сжатия : Без потерь / Lossy
Размер потока : 2,22 Гбайт (12%)
Default : Да
Forced : Нет

Аудио #2
Идентификатор : 3
Формат : AC-3
Формат/Информация : Audio Coding 3
Идентификатор кодека : A_AC3
Продолжительность : 2 ч. 37 м.
Вид битрейта : Постоянный
Битрейт : 640 Кбит/сек
Каналы : 6 каналов
Расположение каналов : Front: L C R, Side: L R, LFE
Частота : 48,0 КГц
Частота кадров : 31,250 кадров/сек (1536 SPF)
Битовая глубина : 16 бит
Метод сжатия : С потерями
Размер потока : 719 Мбайт (4%)
Default : Нет
Forced : Нет


_________________
Проголосуй за трекер Открытый торрент трекер - RUS-MEDIA.ORG

Проголосуй Открытый торрент трекер - RUS-MEDIA.ORG


Вернуться к началу
 Профиль Отправить личное сообщение  
 
   Похожие торренты   Автор   Торрент   Размер 
В этой теме нет новых непрочитанных сообщений. Утомлённые солнцем 2: Цитадель [Драма, военный, 2011] BDRemux 1080p

salma3

1 | 4

33.84 ГБ

В этой теме нет новых непрочитанных сообщений. Цитадель / Зулус Шака: Цитадель / Shaka Zulu: The Citadel [Приключения, драма, 2001] SATRip, Mvo

salma3

149 | 37

2.74 ГБ

В этой теме нет новых непрочитанных сообщений. Цветы войны / The Flowers of War / Jin líng shí san chai [Драма, военный, история, экранизация, 2011] BDRemux 1080p, Dub

salma3

17 | 18

29.04 ГБ

В этой теме нет новых непрочитанных сообщений. Ливан / Lebanon [Драма, военный, 2009] BDRemux 1080p, Dub

salma3

21 | 7

13.2 ГБ

В этой теме нет новых непрочитанных сообщений. Касабланка / Casablanca [Драма, мелодрама, военный, 1942] BDRemux 1080p, Mvo

salma3

0 | 1

22.37 ГБ

В этой теме нет новых непрочитанных сообщений. МакБэйн / McBain [боевик, драма, военный, 1991] BDRemux 1080p, Avo

salma3

0 | 3

21.98 ГБ

В этой теме нет новых непрочитанных сообщений. Братья / Brothers [Триллер, драма, военный, 2009] BDRemux 1080p, Mvo

salma3

8 | 3

20.42 ГБ


Начать новую тему Ответить на тему  [ 1 сообщение ] 




Для Мосгорсуда, Роскомнадзора и рекламодателей:: mosgorsud-torrent[собачка]yandex.ru
cron