Торрент файл
скачать торрент магнет ссылка Добавлен: 12 янв 2017, 12:42
Размер: 4.15 ГБ
Сидеров: 124
Личеров: 50
Статус: (salma3)
Автор

СообщениеДобавлено: 12 янв 2017, 12:42 

Не в сети
Супермодератор
Аватара пользователя
Дата регистрации:
15 фев 2012, 16:44
Возраст: 27
Спасибо: 5704 / 2109
Сообщения: 24847
Год выхода: 2015
Жанр: Драма, мелодрама
Режиссер: Александр Котт

В ролях: Александр Яценко, Агриппина Стеклова, Андрей Бильжо, Филипп Авдеев, Михаил Черкасов, Дмитрий Муляр

О фильме:
Павел Зуев теряет зрение и вынужден начать свою жизнь с нуля. Все связи с его прежней жизнью разорваны, зато в новой он встречает незаурядную женщину, способную видеть больше, чем другие люди. Ее зовут символично: Надежда, и она работает в местной больнице. Надежда поможет Зуеву найти силы и новое чувство реальности. Два этих человека с одинаково сильными характерами переживут, возможно, лучшие дни своей жизни.



Страна: Россия
Студия: Пан-Атлантик Студио
Продолжительность: 01:28:38
Перевод: Не требуется

Файл
Кодек: h.264
Качество: HDTV 1080i
Видео: MPEG-TS AVC, ~ 5926 Кбит/с, 1920x1080, 25.000 кадр/с
Звук: Русский (AC3, 6 ch, 448 Кбит/с)
Субтитры: Нет

Семпл

Автор релиза - Silverok, первоисточник - Наш Кинороман HD

General
ID : 1 (0x1)
Complete name : D:uTorrentInsait.2015.HDTV.1080i.MediaClub.ts
Format : MPEG-TS
File size : 4.15 GiB
Duration : 1 h 28 min
Overall bit rate mode : Variable
Overall bit rate : 6 710 kb/s
Maximum Overall bit rate : 35.5 Mb/s

Video
ID : 4113 (0x1011)
Menu ID : 1 (0x1)
Format : AVC
Format/Info : Advanced Video Codec
Format profile : Main@L4
Format settings, CABAC : Yes
Format settings, ReFrames : 4 frames
Codec ID : 27
Duration : 1 h 28 min
Bit rate mode : Variable
Bit rate : 5 926 kb/s
Maximum bit rate : 40.0 Mb/s
Width : 1 920 pixels
Height : 1 080 pixels
Display aspect ratio : 16:9
Frame rate : 25.000 FPS
Color space : YUV
Chroma subsampling : 4:2:0
Bit depth : 8 bits
Scan type : Interlaced
Scan type, store method : Separated fields
Scan order : Top Field First
Bits/(Pixel*Frame) : 0.114
Stream size : 3.67 GiB (88%)
Color range : Limited
Color primaries : BT.709
Transfer characteristics : BT.709
Matrix coefficients : BT.709

Audio
ID : 4352 (0x1100)
Menu ID : 1 (0x1)
Format : AC-3
Format/Info : Audio Coding 3
Mode extension : CM (complete main)
Format settings, Endianness : Big
Codec ID : 129
Duration : 1 h 28 min
Bit rate mode : Constant
Bit rate : 448 kb/s
Channel(s) : 6 channels
Channel positions : Front: L C R, Side: L R, LFE
Sampling rate : 48.0 kHz
Frame rate : 31.250 FPS (1536 spf)
Compression mode : Lossy
Delay relative to video : 40 ms
Stream size : 284 MiB (7%)
Language : Russian


Релиз от: | Silverok


_________________
Проголосуй за трекер Открытый торрент трекер - RUS-MEDIA.ORG




реклама партнёра


Вернуться к началу
 Профиль Отправить личное сообщение  
 
   Похожие торренты   Автор   Торрент   Размер 
В этой теме нет новых непрочитанных сообщений. Инсайт / Слепая любовь [Драма, мелодрама, 2015] HDTVRip-AVC

salma3

299 | 49

1.32 ГБ

В этой теме нет новых непрочитанных сообщений. Нинкина любовь (Игорь Перин) [Мелодрама, 2015] HDTV 1080i

Dracon

145 | 4

6.12 ГБ

В этой теме нет новых непрочитанных сообщений. Любовь на четырех колесах (Сергей Влади) [мелодрама, 2015] HDTV 1080i

Dracon

118 | 7

5.61 ГБ

В этой теме нет новых непрочитанных сообщений. Весной расцветает любовь [Серия 1-20 из 20] (Всеволод Аравин) [Мелодрама, 2015] HDTV 1080i

Dracon

92 | 51

51.42 ГБ

В этой теме нет новых непрочитанных сообщений. Прощай, любовь / Bye Bye Love [Комедия, драма, мелодрама, 1995] HDTV 1080i, Mvo

salma3

16 | 16

6.53 ГБ

В этой теме нет новых непрочитанных сообщений. Полцарства за любовь [Мелодрама, 2014] HDTV 1080i

Dracon

131 | 4

5.44 ГБ

В этой теме нет новых непрочитанных сообщений. Любовь и Роман [Мелодрама, 2014] HDTV 1080i

Dracon

68 | 8

4.85 ГБ


Начать новую тему Ответить на тему  [ 1 сообщение ] 




Для Мосгорсуда, Роскомнадзора и рекламодателей:: mosgorsud-torrent[собачка]yandex.ru