Торрент файл
скачать торрент магнет ссылка Добавлен: 30 дек 2016, 17:47
Размер: 2.17 ГБ
Сидеров: 3120
Личеров: 283
Автор

СообщениеДобавлено: 30 дек 2016, 17:47 

Не в сети
Дата регистрации:
28 сен 2016, 18:10
Спасибо: 204 / 0
Сообщения: 2003
Год выхода : 2016
Страна: Россия
Жанр: военный, драма
Продолжительность : 02:00:37
Перевод : Не требуется [iTunes]
Субтитры : нет
Режиссер : Ким Дружинин, Андрей Шальопа
В главных ролях : Александр Устюгов, Яков Кучеревский, Азамат Нигманов, Олег Фёдоров, Алексей Морозов, Антон Кузнецов, Алексей Лонгин, Максим Белбородов, Дмитрий Мурашев, Виталий Коваленко
Описание : Осенью 1941-го года немецкие части, стоявшие возле Волоколамска, отделяло от Москвы каких-нибудь два часа по шоссе. Однако, на этом шоссе стояла 316-я стрелковая дивизия под командованием генерала И. В. Панфилова. Этот военачальник обладал настолько высоким авторитетом среди личного состава, что бойцы дивизии сами называли себя панфиловцами. А дивизию — панфиловской.
Качество видео: WEB-DLRip-AVC
Формат видео: MKV
Видео: 1024х428, 24 fps, AVC ~2189 kbps avg
Аудио: 48 kHz, AC3 Dolby Digital, 3/2 (L,C,R,l,r) + LFE ch, ~384 kbps
Релиз от:



28_panfilovcev_2016_AVC_WEB-DLRip_[scarabey.org].mkv
Format : Matroska
Format version : Version 2
File size : 2.17 GiB
Duration : 2h 0mn
Overall bit rate : 2 575 Kbps
Encoded date : UTC 2016-12-27 05:03:14
Writing application : mkvmerge v6.1.0 ('Old Devil') built on Mar 4 2013 09:10:42
Writing library : libebml v1.3.0 + libmatroska v1.4.0
Video
ID : 1
Format : AVC
Format/Info : Advanced Video Codec
Format profile : High@L4.1
Format settings, CABAC : Yes
Format settings, ReFrames : 10 frames
Codec ID : V_MPEG4/ISO/AVC
Duration : 2h 0mn
Bit rate : 2 189 Kbps
Width : 1 024 pixels
Height : 428 pixels
Display aspect ratio : 2.35:1
Original display aspect ratio : 2.35:1
Frame rate mode : Constant
Frame rate : 24.000 fps
Color space : YUV
Chroma subsampling : 4:2:0
Bit depth : 8 bits
Scan type : Progressive
Bits/(Pixel*Frame) : 0.208
Stream size : 1.80 GiB (83%)
Writing library : x264 core 148 r2597 e86f3a1
Encoding settings : cabac=1 / ref=10 / deblock=1:-3:-2 / analyse=0x3:0x113 / me=umh / subme=10 / psy=1 / psy_rd=1.00:0.00 / mixed_ref=1 / me_range=32 / chroma_me=1 / trellis=2 / 8x8dct=1 / cqm=0 / deadzone=21,11 / fast_pskip=1 / chroma_qp_offset=-2 / threads=12 / lookahead_threads=2 / sliced_threads=0 / nr=0 / decimate=0 / interlaced=0 / bluray_compat=0 / constrained_intra=0 / bframes=8 / b_pyramid=2 / b_adapt=2 / b_bias=0 / direct=3 / weightb=1 / open_gop=0 / weightp=2 / keyint=240 / keyint_min=24 / scenecut=40 / intra_refresh=0 / rc_lookahead=40 / rc=2pass / mbtree=1 / bitrate=2189 / ratetol=1.0 / qcomp=0.60 / qpmin=0 / qpmax=69 / qpstep=4 / cplxblur=20.0 / qblur=0.5 / ip_ratio=1.40 / aq=1:1.00
Default : Yes
Forced : No
Audio
ID : 2
Format : AC-3
Format/Info : Audio Coding 3
Mode extension : CM (complete main)
Format settings, Endianness : Big
Codec ID : A_AC3
Duration : 2h 0mn
Bit rate mode : Constant
Bit rate : 384 Kbps
Channel(s) : 6 channels
Channel positions : Front: L C R, Side: L R, LFE
Sampling rate : 48.0 KHz
Bit depth : 16 bits
Compression mode : Lossy
Stream size : 331 MiB (15%)
Default : Yes
Forced : No




реклама партнёра


Вернуться к началу
 Профиль Отправить личное сообщение  
 
   Похожие торренты   Автор   Торрент   Размер 
В этой теме нет новых непрочитанных сообщений. 28 панфиловцев ( военный, драма, 2016) WEB-DLRip от Scarabey | iTunes

marya111

3200 | 344

2.18 ГБ

В этой теме нет новых непрочитанных сообщений. 28 панфиловцев / Двадцать восемь панфиловцев [военный, драма, 2016] BDRip [Лицензия]

salma3

170 | 48

748.12 МБ

В этой теме нет новых непрочитанных сообщений. 28 панфиловцев [военный, драма, 2016] WEB-DLRip

salma3

1981 | 341

746.04 МБ

В этой теме нет новых непрочитанных сообщений. 28 панфиловцев [военный, драма, 2016] WEB-DLRip-AVC

salma3

1517 | 293

3.85 ГБ

В этой теме нет новых непрочитанных сообщений. Лейтенант (драма, 2016) WEB-DLRip от Scarabey | iTunes

marya111

1047 | 101

1.45 ГБ

В этой теме нет новых непрочитанных сообщений. Коллектор (драма, триллер, 2016) WEB-DLRip от Scarabey | iTunes

marya111

945 | 74

1.31 ГБ

В этой теме нет новых непрочитанных сообщений. Коллектор (драма, триллер, 2016) WEB-DLRip от Scarabey | iTunes

marya111

9256 | 812

1.32 ГБ


Начать новую тему Ответить на тему  [ 1 сообщение ] 




Для Мосгорсуда, Роскомнадзора и рекламодателей:: mosgorsud-torrent[собачка]yandex.ru