Торрент файл
скачать торрент магнет ссылка Добавлен: 24 дек 2016, 13:13
Размер: 4.98 ГБ
Сидеров: 52
Личеров: 36
Автор

СообщениеДобавлено: 24 дек 2016, 13:13 

В сети
Супермодератор
Аватара пользователя
Дата регистрации:
15 фев 2012, 16:44
Возраст: 27
Спасибо: 5505 / 2103
Сообщения: 20966
Год выхода: 2014
Жанр: Драма
Режиссер: Алина Стеблюк

В ролях: Игорь Дорофеев, Фёдор Гоппе, Максим Литовченко, Дмитрий Ендальцев, Эллия Суханова, Родион Котин, Татьяна Фадеева, Алина Стеблюк, Ольга Остроумова-Гутшмидт, Екатерина Ефимова, Мария Сластнёнкова, Екатерина Бурылева, Юрий Балицкий, Вячеслав Петрушин, Александр Гребнев (II), Татьяна Кузнецова (III), Александр Петрачков, Пётр Матрёничев

О фильме:
Начинающий актёр Егор Берсеньев ищет удачи в столице, ходит на кастинги и ещё подрабатывает Дедом Морозом. После того как его однажды уговаривают сыграть спектакль в детском доме, где он знакомится с мальчиком Федей, его жизнь меняется…



Страна: Россия
Продолжительность: 01:28:29
Перевод: Не требуется

Файл
Кодек: h.264
Качество: HDTV 1080i
Видео: MPEG-TS AVC, ~ 7017 Кбит/с, 1920x1080, 25.000 кадр/с
Звук:
Русский (AC3, 6 ch, 448 Кбит/с)
Русский (MP2, 2 ch, 192 Кбит/с)
Субтитры: Нет
Семпл
Автор релиза - Silverok, первоисточник - Наш Кинороман HD
General
ID : 1 (0x1)
Complete name : D:uTorrentDed.Moroz.2014.HDTV.1080i.MediaClub.ts
Format : MPEG-TS
File size : 4.98 GiB
Duration : 1 h 28 min
Overall bit rate mode : Variable
Overall bit rate : 8 062 kb/s
Video
ID : 3551 (0xDDF)
Menu ID : 17015 (0x4277)
Format : AVC
Format/Info : Advanced Video Codec
Format profile : Main@L4
Format settings, CABAC : Yes
Format settings, ReFrames : 4 frames
Format settings, GOP : M=1, N=32
Codec ID : 27
Duration : 1 h 28 min
Bit rate : 7 017 kb/s
Width : 1 920 pixels
Height : 1 080 pixels
Display aspect ratio : 16:9
Frame rate : 25.000 FPS
Color space : YUV
Chroma subsampling : 4:2:0
Bit depth : 8 bits
Scan type : Interlaced
Scan type, store method : Separated fields
Scan order : Top Field First
Bits/(Pixel*Frame) : 0.135
Stream size : 4.34 GiB (87%)
Color range : Limited
Color primaries : BT.709
Transfer characteristics : BT.709
Matrix coefficients : BT.709
Audio #1
ID : 3552 (0xDE0)
Menu ID : 17015 (0x4277)
Format : AC-3
Format/Info : Audio Coding 3
Mode extension : CM (complete main)
Format settings, Endianness : Big
Codec ID : 6
Duration : 1 h 28 min
Bit rate mode : Constant
Bit rate : 448 kb/s
Channel(s) : 6 channels
Channel positions : Front: L C R, Side: L R, LFE
Sampling rate : 48.0 kHz
Frame rate : 31.250 FPS (1536 spf)
Compression mode : Lossy
Stream size : 284 MiB (6%)
Language : Russian
Audio #2
ID : 3553 (0xDE1)
Menu ID : 17015 (0x4277)
Format : MPEG Audio
Format version : Version 1
Format profile : Layer 2
Codec ID : 3
Duration : 1 h 28 min
Bit rate mode : Constant
Bit rate : 192 kb/s
Channel(s) : 2 channels
Sampling rate : 48.0 kHz
Compression mode : Lossy
Stream size : 122 MiB (2%)
Language : Russian

Релиз от: | Silverok


_________________
Проголосуй за трекер Открытый торрент трекер - RUS-MEDIA.ORG

Не забудьте оставить комментарий!



реклама партнёра


Вернуться к началу
 Профиль Отправить личное сообщение  
 
   Похожие торренты   Автор   Торрент   Размер 
В этой теме нет новых непрочитанных сообщений. Чудотворец [01-08 из 08] [Драма, 2014] HDTV 1080i

Dracon

71 | 19

23.66 ГБ

В этой теме нет новых непрочитанных сообщений. Солнечный удар [Драма, 2014] HDTV 1080i

Dracon

679 | 27

10.33 ГБ

В этой теме нет новых непрочитанных сообщений. Мажор [01-12 из 12] [Криминальная драма, 2014] HDTV 1080i

Dracon

434 | 305

40.62 ГБ

В этой теме нет новых непрочитанных сообщений. Поселенцы / Squatters [Драма, 2014] HDTV 1080i, Mvo

salma3

80 | 6

4.2 ГБ

В этой теме нет новых непрочитанных сообщений. Мажор [01-10 из 12] [Криминальная драма, 2014] HDTV 1080i

Dracon

В этой теме нет новых непрочитанных сообщений. Григорий Р. / Распутин [01-08 из 08] [Драма, исторический, 2014] HDTV 1080i

Dracon

140 | 21

27.04 ГБ

В этой теме нет новых непрочитанных сообщений. Екатерина [01-09 из 09] [Драма, мелодрама, история, 2014] HDTV 1080i

Dracon

312 | 95

25.19 ГБ


Начать новую тему Ответить на тему  [ 1 сообщение ] 




Для Мосгорсуда, Роскомнадзора и рекламодателей:: mosgorsud-torrent[собачка]yandex.ru