Торрент файл
скачать торрент магнет ссылка Добавлен: 22 дек 2016, 22:23
Размер: 3.51 ГБ
Сидеров: 7984
Личеров: 1597
Статус: (salma3)
Автор

СообщениеДобавлено: 22 дек 2016, 22:23 

Не в сети
Супермодератор
Аватара пользователя
Дата регистрации:
15 фев 2012, 16:44
Возраст: 27
Спасибо: 5384 / 2095
Сообщения: 19371
Год выхода: 2016
Жанр: комедия
Режиссер: Оксана Карас
В ролях: Семен Трескунов, Константин Хабенский, Михаил Ефремов, Александр Паль, Анастасия Богатырева, Василий Буткевич, Иева Андреевайте, Ирина Денисова, Татьяна Догилева, Ирина Пегова

О фильме:
Обычная, казалось бы, неделя из жизни ничем не примечательного школьника Коли Смирнова превращается в череду невероятных происшествий: Коля влюбляется в учительницу английского, кто-то поджигает школьную пристройку с новыми компьютерами, а папа Коли заявляет семье о необходимости отказа от ночного сна, из-за чего никому в доме не удается выспаться и собраться с мыслями. Вдобавок в самого Колю влюбляется дочка директора, старшеклассница Ксюша, решившая, что это именно он поджёг школу. Остаётся всего несколько дней до субботнего праздника школы, где должны встретиться все действующие лица этого водоворота событий, и теперь хорошему мальчику Коле необходимо успеть разобраться со своей личной жизнью, расследовать поджог и наладить взаимоотношения с родителями.



Выпущено: Россия
Продолжительность: 01:22:45
Озвучивание: Оригинальное [iTunes]

Файл
Формат: MKV
Качество: WEB-DL 1080p
Видео: MPEG-4 AVC, 4792 kb/s, 1920x856
Аудио: AC3, 384 kb/s (6 ch)
Format : Matroska
Format version : Version 2
File size : 3.51 GiB
Duration : 1 h 35 min
Overall bit rate : 5 281 kb/s
Movie name : The Good Boy (2016) - Release for HDCLUB
Encoded date : UTC 2016-12-21 19:58:27
Writing application : mkvmerge v3.4.0 ('Rapunzel') built on May 15 2010 09:38:20
Writing library : libebml v0.8.0 + libmatroska v0.9.0
Video
ID : 1
Format : AVC
Format/Info : Advanced Video Codec
Format profile : High@L4
Format settings, CABAC : Yes
Format settings, ReFrames : 5 frames
Codec ID : V_MPEG4/ISO/AVC
Duration : 1 h 35 min
Bit rate : 4 792 kb/s
Width : 1 920 pixels
Height : 856 pixels
Display aspect ratio : 2.25:1
Frame rate mode : Constant
Frame rate : 24.000 FPS
Color space : YUV
Chroma subsampling : 4:2:0
Bit depth : 8 bits
Scan type : Progressive
Bits/(Pixel*Frame) : 0.121
Stream size : 3.18 GiB (91%)
Title : The Good Boy (2016) - Release for HDCLUB
Language : Russian
Default : Yes
Forced : No
Color range : Limited
Color primaries : BT.709
Transfer characteristics : BT.709
Matrix coefficients : BT.709
Audio
ID : 2
Format : AC-3
Format/Info : Audio Coding 3
Mode extension : CM (complete main)
Format settings, Endianness : Big
Codec ID : A_AC3
Duration : 1 h 35 min
Bit rate mode : Constant
Bit rate : 384 kb/s
Channel(s) : 6 channels
Channel positions : Front: L C R, Side: L R, LFE
Sampling rate : 48.0 kHz
Frame rate : 31.250 FPS (1536 spf)
Compression mode : Lossy
Stream size : 261 MiB (7%)
Title : AC3 5.1 @ 384 kbps
Language : Russian
Default : Yes
Forced : No
Menu
00:00:00.000 : en:1
00:06:15.583 : en:2
00:13:25.874 : en:3
00:20:43.582 : en:4
00:28:08.873 : en:5
00:35:55.831 : en:6
00:42:27.747 : en:7
00:50:15.455 : en:8
00:57:46.288 : en:9
01:05:03.579 : en:10
01:11:38.829 : en:11
01:18:45.745 : en:12
01:25:45.453 : en:13

Релиз:


_________________
Проголосуй за трекер Открытый торрент трекер - RUS-MEDIA.ORG

Не забудьте оставить комментарий!



реклама партнёра


Вернуться к началу
 Профиль Отправить личное сообщение  
 
   Похожие торренты   Автор   Торрент   Размер 
В этой теме нет новых непрочитанных сообщений. Хороший мальчик [комедия, 2016] WEB-DLRip [iTunes]

salma3

6473 | 563

1.37 ГБ

В этой теме нет новых непрочитанных сообщений. Хороший мальчик (комедия, 2016) WEB-DLRip от Scarabey | iTunes

marya111

3316 | 305

1.45 ГБ

В этой теме нет новых непрочитанных сообщений. Хороший мальчик (2016) WEB-DLRip от Generalfilm | КПК | iTunes

marya111

307 | 47

358.03 МБ

В этой теме нет новых непрочитанных сообщений. Любовь без правил [комедия, 2016] WEB-DL 1080p [iTunes]

salma3

2594 | 514

3.1 ГБ

В этой теме нет новых непрочитанных сообщений. Имущество с хвостом / Who Gets the Dog? [комедия, 2016] BDRip 1080p, Dub [iTunes]

salma3

313 | 55

6.38 ГБ

В этой теме нет новых непрочитанных сообщений. Несносные леди / Mother's Day [драма, комедия, 2016] WEB-DL 1080p, Dub [iTunes]

salma3

264 | 16

4.27 ГБ

В этой теме нет новых непрочитанных сообщений. Зачинщики / Masterminds [боевик, комедия, криминал, 2016] WEB-DL 1080p, Dub [iTunes]

salma3

9577 | 365

3.53 ГБ


Начать новую тему Ответить на тему  [ 1 сообщение ] 




Для Мосгорсуда, Роскомнадзора и рекламодателей:: mosgorsud-torrent[собачка]yandex.ru