Торрент файл
скачать торрент магнет ссылка Добавлен: 11 дек 2016, 14:14
Размер: 4.18 ГБ
Сидеров: 3221
Личеров: 1218
Статус: (salma3)
Автор

СообщениеДобавлено: 11 дек 2016, 14:14 

Не в сети
Супермодератор
Аватара пользователя
Дата регистрации:
15 фев 2012, 16:44
Возраст: 28
Спасибо: 6402 / 2128
Сообщения: 37622
Год выхода: 2016
Жанр: Комедия
Режиссер: Владимир Лерт

В ролях: Кирилл Кяро, Даша Астафьева, Олег Собчук, Виктор Андриенко, Елена Турбал, Андрей Джеджула, Наталия Денисенко, Валентина Войтенко, Константин Войтенко, Марк Дробот, Илья Прокопив, Роберт Фельдман, Екатерина Рубашкина

О фильме:
Все, что произошло в Ночь святого Валентина, теперь увидит вся страна! Пока все влюбленные пары мира одаривают друг друга нежными словами любви, наши герои принимают сюрпризы судьбы. Популярная рок-звезда отчаянно пытается дописать песню для фильма Гая Ричи и в творческих муках впервые за долгие годы встречает свою музу. Тем временем застенчивый гинеколог в перерывах между осмотром пациенток влюбляется в роковую красотку. Влюбленность ценой в собственную безопасность. Ближе к полуночи город не спит. Студенты первого курса — тем более! В этот день они впервые устроили масштабную вечеринку, приуроченную к дню влюбленных. Их ночь могла быть идеальной, если бы на одном танцполе не повстречались ревнивый парень, завистливая бывшая и диджей, принявший удар безответной любви!



Страна: Украина
Студия: Паноптикум, Tauras Films
Продолжительность: 01:17:36
Перевод: Не требуется
Файл
Кодек: h.264
Качество: HDTV 1080i
Видео: MPEG-4 AVC, ~ 6691 Кбит/с, 1920x1080, 25.000 кадр/с
Звук:
Русский (AC3, 6 ch, 448 Кбит/с)
Русский (MP2, 2 ch, 192 Кбит/с)
Субтитры: Нет
Семпл
Автор релиза - Silverok, первоисточник - Наш Киноромон HD
General
ID : 1 (0x1)
Complete name : D:uTorrentNoch.svjatogo.valentina.2016.HDTV.1080i.MediaClub.ts
Format : MPEG-TS
File size : 4.18 GiB
Duration : 1 h 17 min
Overall bit rate mode : Variable
Overall bit rate : 7 719 kb/s
Video
ID : 3551 (0xDDF)
Menu ID : 17015 (0x4277)
Format : AVC
Format/Info : Advanced Video Codec
Format profile : Main@L4
Format settings, CABAC : Yes
Format settings, ReFrames : 4 frames
Codec ID : 27
Duration : 1 h 17 min
Bit rate : 6 691 kb/s
Width : 1 920 pixels
Height : 1 080 pixels
Display aspect ratio : 16:9
Frame rate : 25.000 FPS
Color space : YUV
Chroma subsampling : 4:2:0
Bit depth : 8 bits
Scan type : Interlaced
Scan type, store method : Separated fields
Scan order : Top Field First
Bits/(Pixel*Frame) : 0.129
Stream size : 3.63 GiB (87%)
Color range : Limited
Color primaries : BT.709
Transfer characteristics : BT.709
Matrix coefficients : BT.709
Audio #1
ID : 3552 (0xDE0)
Menu ID : 17015 (0x4277)
Format : AC-3
Format/Info : Audio Coding 3
Mode extension : CM (complete main)
Format settings, Endianness : Big
Codec ID : 6
Duration : 1 h 17 min
Bit rate mode : Constant
Bit rate : 448 kb/s
Channel(s) : 6 channels
Channel positions : Front: L C R, Side: L R, LFE
Sampling rate : 48.0 kHz
Frame rate : 31.250 FPS (1536 spf)
Compression mode : Lossy
Stream size : 249 MiB (6%)
Language : Russian
Audio #2
ID : 3553 (0xDE1)
Menu ID : 17015 (0x4277)
Format : MPEG Audio
Format version : Version 1
Format profile : Layer 2
Codec ID : 3
Duration : 1 h 17 min
Bit rate mode : Constant
Bit rate : 192 kb/s
Channel(s) : 2 channels
Sampling rate : 48.0 kHz
Compression mode : Lossy
Stream size : 107 MiB (2%)
Language : Russian

Релиз от: | Silverok


_________________
Проголосуй за трекер Открытый торрент трекер - RUS-MEDIA.ORG

Проголосуй Открытый торрент трекер - RUS-MEDIA.ORG



реклама партнёра


Вернуться к началу
 Профиль Отправить личное сообщение  
 
   Похожие торренты   Автор   Торрент   Размер 
В этой теме нет новых непрочитанных сообщений. Ночь святого Валентина (Комедия, 2016) HDTVRip от GeneralFilm

marya111

659 | 57

745.1 МБ

В этой теме нет новых непрочитанных сообщений. Все о дне святого Валентина / All Things Valentine [драма, мелодрама, комедия, 2016] HDTV 720p, Mvo

salma3

0 | 0

2.65 ГБ

В этой теме нет новых непрочитанных сообщений. Все о дне святого Валентина / All Things Valentine (Гари Харви / Gary Harvey) [2016г., драма, мелодрама, комедия, HDTVRip]mvo

Alfredovich

0 | 0

1.37 ГБ

В этой теме нет новых непрочитанных сообщений. Праздничное шоу Валентина Юдашкина [эфир 2015.03.08] (Россия) [Тв-шоу, концерт, 2015] HDTV 1080i

Dracon

16 | 2

6.43 ГБ

В этой теме нет новых непрочитанных сообщений. День Святого Валентина / Valentine [ужасы, триллер, 2001] WEB-DL 720p, Dub

salma3

20 | 0

3.23 ГБ

В этой теме нет новых непрочитанных сообщений. Белая ночь [01-04 из 04] (Александр Якимчук) [Военный, 2014] HDTV 1080i

Dracon

269 | 27

13.18 ГБ

В этой теме нет новых непрочитанных сообщений. Поздравил убойную училку с Днём Святого Валентина / Brandi Love (Desperate For V-Day Dick) (2017) SiteRip

salma3

6 | 0

233.12 МБ


Начать новую тему Ответить на тему  [ 1 сообщение ] 




Для Мосгорсуда, Роскомнадзора и рекламодателей:: mosgorsud-torrent[собачка]yandex.ru