Торрент файл
скачать торрент магнет ссылка Добавлен: 16 дек 2021, 19:12
Размер: 8.24 ГБ
Сидеров: 0
Личеров: 0
Статус: (salma3)
Автор

СообщениеДобавлено: 16 дек 2021, 19:12 

Не в сети
Супермодератор
Аватара пользователя
Дата регистрации:
15 фев 2012, 16:44
Возраст: 32
Спасибо: 8320 / 2148
Сообщения: 97229
Год выхода: 2021
Жанр: Ужасы, триллер, криминал
Режиссер: Дэвид Гордон Грин

В ролях: Джейми Ли Кёртис, Джуди Грир, Энди Мэтичак, Энтони Майкл Холл, Джеймс Джуд Кортни, Ник Касл, Эйрон Армстронг, Уилл Пэттон, Томас Манн, Джим Каммингс (V)



О фильме: Лори Строуд, её дочь Карен и внучка Эллисон поймали Майкла Майерса в ловушку и оставили гореть в подвале их дома. Раненая Лори отправляется в больницу, уверенная в том, что её преследователь наконец-то мёртв. Но Майклу удаётся освободиться, и его кровавая расправа продолжается. Лори должна справиться с болью и снова защищаться, однако, в этот раз весь город готов дать отпор неудержимому монстру. Женщины семьи Строуд присоединяются к группе выживших, которые хотят взять правосудие в свои руки, выследить Майкла и остановить его раз и навсегда. Зло должно умереть сегодня.

Страна: Великобритания, США
Продолжительность: 01:45:06
Перевод: Дублированный [iTunes]

Качество: WEB-DL 1080p
Видео: MPEG-4 AVC, 1920x802, 10.1 Mbit/s, 23.976 fps
Аудио #01: 48 kHz, AC3, 5.1, 384 Kbps | iTunes | RUS |
Аудио #02: 48 kHz, E-AC3+Atmos, 5.1, 768 Kbps | Оригинал | ENG |
Субтитры: Русские (Full), английские

General
Unique ID : 271208393334395545379104398108176883329 (0xCC08D62AB57BC6698D426C88D7C71E81)
Complete name : D:VideoHalloween.Kills.2021.WEB-DL.1080p.seleZen.mkv
Format : Matroska
Format version : Version 4
File size : 8.24 GiB
Duration : 1 h 45 min
Overall bit rate : 11.2 Mb/s
Movie name : Halloween Kills 2021 from seleZen
Encoded date : UTC 2021-12-16 11:55:41
Writing application : mkvmerge v59.0.0 ('Shining Star') 64-bit
Writing library : libebml v1.4.2 + libmatroska v1.6.4

Video
ID : 1
Format : AVC
Format/Info : Advanced Video Codec
Format profile : High@L4
Format settings : CABAC / 5 Ref Frames
Format settings, CABAC : Yes
Format settings, Reference : 5 frames
Codec ID : V_MPEG4/ISO/AVC
Duration : 1 h 45 min
Bit rate : 10.1 Mb/s
Width : 1 920 pixels
Height : 802 pixels
Display aspect ratio : 2.40:1
Frame rate mode : Constant
Frame rate : 23.976 (24000/1001) FPS
Color space : YUV
Chroma subsampling : 4:2:0
Bit depth : 8 bits
Scan type : Progressive
Bits/(Pixel*Frame) : 0.273
Stream size : 7.39 GiB (90%)
Language : English
Default : Yes
Forced : No
Color range : Limited
Color primaries : BT.709
Transfer characteristics : BT.709
Matrix coefficients : BT.709

Audio #1
ID : 2
Format : AC-3
Format/Info : Audio Coding 3
Commercial name : Dolby Digital
Codec ID : A_AC3
Duration : 1 h 45 min
Bit rate mode : Constant
Bit rate : 384 kb/s
Channel(s) : 6 channels
Channel layout : L R C LFE Ls Rs
Sampling rate : 48.0 kHz
Frame rate : 31.250 FPS (1536 SPF)
Compression mode : Lossy
Stream size : 289 MiB (3%)
Title : iTunes
Language : Russian
Service kind : Complete Main
Default : Yes
Forced : Yes

Audio #2
ID : 3
Format : E-AC-3 JOC
Format/Info : Enhanced AC-3 with Joint Object Coding
Commercial name : Dolby Digital Plus with Dolby Atmos
Codec ID : A_EAC3
Duration : 1 h 45 min
Bit rate mode : Constant
Bit rate : 768 kb/s
Channel(s) : 6 channels
Channel layout : L R C LFE Ls Rs
Sampling rate : 48.0 kHz
Frame rate : 31.250 FPS (1536 SPF)
Compression mode : Lossy
Stream size : 577 MiB (7%)
Title : Original
Language : English
Service kind : Complete Main
Default : No
Forced : No
Complexity index : 16
Number of dynamic objects : 15
Bed channel count : 1 channel
Bed channel configuration : LFE

Text #1
ID : 4
Format : UTF-8
Codec ID : S_TEXT/UTF8
Codec ID/Info : UTF-8 Plain Text
Duration : 1 h 38 min
Bit rate : 83 b/s
Count of elements : 1451
Stream size : 59.9 KiB (0%)
Title : Full [MENINSUB]
Language : Russian
Default : No
Forced : No

Text #2
ID : 5
Format : UTF-8
Codec ID : S_TEXT/UTF8
Codec ID/Info : UTF-8 Plain Text
Duration : 1 h 38 min
Bit rate : 54 b/s
Count of elements : 1449
Stream size : 39.3 KiB (0%)
Title : Full
Language : English
Default : No
Forced : No

Text #3
ID : 6
Format : UTF-8
Codec ID : S_TEXT/UTF8
Codec ID/Info : UTF-8 Plain Text
Duration : 1 h 45 min
Bit rate : 65 b/s
Count of elements : 1874
Stream size : 50.2 KiB (0%)
Title : SDH
Language : English
Default : No
Forced : No

Menu
00:00:00.000 : 1
00:06:26.261 : 2
00:12:26.537 : 3
00:19:15.237 : 4
00:24:31.011 : 5
00:30:20.360 : 6
00:36:18.426 : 7
00:42:12.446 : 8
00:47:56.790 : 9
00:53:21.281 : 10
00:59:46.666 : 11
01:04:18.020 : 12
01:11:38.502 : 13
01:15:49.294 : 14
01:22:48.796 : 15
01:37:57.162 : 16


Релиз:


_________________
Проголосуй за трекер Открытый торрент трекер - RUS-MEDIA.ORG

Проголосуй Открытый торрент трекер - RUS-MEDIA.ORG


Вернуться к началу
 Профиль Отправить личное сообщение  
 
   Похожие торренты   Автор   Торрент   Размер 
В этой теме нет новых непрочитанных сообщений. Хэллоуин убивает / Halloween Kills [ужасы, триллер, криминал, 2021] WEB-DLRip-AVC, Dub [iTunes]

salma3

35 | 10

1.45 ГБ

В этой теме нет новых непрочитанных сообщений. Хэллоуин убивает / Halloween Kills [Ужасы, триллер, 2021] WEB-DLRip, Dub [iTunes]

salma3

14 | 11

1.46 ГБ

В этой теме нет новых непрочитанных сообщений. Хэллоуин / Halloween [Ужасы, триллер, 1978] BDRip-HEVC 1080p, Mvo

salma3

0 | 0

5.88 ГБ

В этой теме нет новых непрочитанных сообщений. Хэллоуин у тёти Этель / Halloween at Aunt Ethel's [ужасы, чёрная комедия, 2019] WEB-DL 1080p, Dvo

salma3

0 | 0

4.75 ГБ

В этой теме нет новых непрочитанных сообщений. Тихое место 2 / A Quiet Place Part II [Ужасы, фантастика, триллер, 2021] WEB-DL 1080p, Dub [iTunes]

salma3

0 | 0

7.66 ГБ

В этой теме нет новых непрочитанных сообщений. Принцесса якудза / Yakuza Princess [Триллер, криминал, 2021] WEB-DLRip-HEVC 1080p, Dub [iTunes]

salma3

2 | 0

2.03 ГБ

В этой теме нет новых непрочитанных сообщений. Хэллоуин Хьюби / Hubie Halloween [Комедия, детектив, 2020] WEB-DLRip, Dub [Netflix]

salma3

20 | 6

755.56 МБ


Начать новую тему Ответить на тему  [ 1 сообщение ] 




Для Мосгорсуда, Роскомнадзора и рекламодателей:: rstracker[собака]yandex.ru
cron