Торрент файл
скачать торрент магнет ссылка Добавлен: 05 сен 2021, 19:12
Размер: 60.91 ГБ
Сидеров: 0
Личеров: 0
Статус: (salma3)
Автор

СообщениеДобавлено: 05 сен 2021, 19:12 

Не в сети
Супермодератор
Аватара пользователя
Дата регистрации:
15 фев 2012, 16:44
Возраст: 32
Спасибо: 8321 / 2148
Сообщения: 97229
Год выхода: 1997
Жанр: боевик, приключения, фантастика
Режиссер: Пол Верховен

В ролях: Каспер Ван Дин, Дэнис Ричардс, Дина Мейер, Нил Патрик Харрис, Джейк Бьюзи, Клэнси Браун, Майкл Айронсайд, Патрик Малдун, Сет Гиллиам, Ру МакКлэнахан, Маршалл Белл, Эрик Браскоттер, Мэтт Левин, Блейк Линдсли, Энтони Руйвивар, Бренда Стронг, Дин Норрис и др.

Описание: В новом тысячелетии над человечеством нависла смертельная опасность. Несметные полчища гигантских разумных жуков с далекой системы планет Клендату угрожают всему живому во вселенной. Солдат элитного подразделения Джонни Рико и пилот Кармен в составе звездного десанта Землян на космическом военном корабле Тикондерога отправляются в зловещие глубины космоса, чтобы в последней схватке решить судьбу Земли.



Страна: США
Продолжительность: 02:09:29
Перевод 1: профессиональный (дублированный) iTunes
Перевод 2: профессиональный (многоголосый закадровый) Первый канал
Перевод 3: авторский (одноголосый закадровый) Аандрей Гаврилов
Перевод 4: авторский (одноголосый закадровый) Юрий Живов
Перевод 5: авторский (одноголосый закадровый) Александр Кашкин
Перевод 6: авторский (одноголосый закадровый) диктор CDV "Cristal Digital Video"
Перевод 7: авторский (одноголосый закадровый) Сергей Визгунов
Перевод 8: одноголосый закадровый Николай Антонов
Субтитры: русские, английские (full, SDH, 2x Commentary)

Файл
Качество: UHD BDRemux 2160p
Видео: MPEG-H HEVC Video / 50475 kbps / 3840x2160 / 23.976 fps / 16:9 / Main 10 Profile 5.1 High / 4:2:0 / 10 bits / HDR10 / BT.2020
Аудио 1: Russian AC3 / 5.1 / 48 kHz / 384 kbps |Dub, iTunes|
Аудио 2: Russian AC3 / 2.0 / 48 kHz / 256 kbps |MVO, Первый канал|
Аудио 3: Russian DTS-HD Master Audio / 5.1 / 48 kHz / 2352 kbps / 16-bit (DTS Core: 5.1 / 48 kHz / 1509 kbps / 16-bit) |А. Гаврилов|
Аудио 4: Russian DTS-HD Master Audio / 5.1 / 48 kHz / 2354 kbps / 16-bit (DTS Core: 5.1 / 48 kHz / 1509 kbps / 16-bit) |Ю. Живов|
Аудио 5: Russian DTS-HD Master Audio / 5.1 / 48 kHz / 2350 kbps / 16-bit (DTS Core: 5.1 / 48 kHz / 1509 kbps / 16-bit) |А. Кашкин|
Аудио 6: Russian DTS-HD Master Audio / 5.1 / 48 kHz / 2102 kbps / 16-bit (DTS Core: 5.1 / 48 kHz / 1509 kbps / 16-bit) |диктор CDV "Cristal Digital Video"|
Аудио 7: Russian AC3 / 2.0 / 48 kHz / 192 kbps |С. Визгунов|
Аудио 8: Russian AC3 / 2.0 / 48 kHz / 192 kbps |Н. Антонов|
Аудио 9: English Dolby Atmos/TrueHD Audio / 7.1-Atmos / 48 kHz / 6038 kbps / 24-bit |original|
Аудио 10: English AC3 Core: 5.1 / 48 kHz / 640 kbps |original|
Аудио 11: Russian AC3 / 2.0 / 48 kHz / 192 kbps |VO - I.D. - Commentary by director Paul Verhoeven and screenwriter Ed Neumeier|
Аудио 12: English AC3 / 2.0 / 48 kHz / 192 kbps |Commentary by director Paul Verhoeven and screenwriter Ed Neumeier|
Аудио 13: English AC3 / 2.0 / 48 kHz / 192 kbps |Commentary by director Paul Verhoeven, and actors Casper Van Dien, Dina Meyer, and Neil Patrick Harris|

Общее
Уникальный идентификатор : 316699117997858995301020177156902438477 (0xEE42080E80F898647737D20EE833464D)
Полное имя : H:UHDЗвездный десант.1997.UHD.Blu-Ray.Remux.2160p.mkv
Формат : Matroska
Версия формата : Version 4
Размер файла : 60,9 Гбайт
Продолжительность : 2 ч. 9 м.
Режим общего битрейта : Переменный
Общий поток : 67,4 Мбит/сек
Дата кодирования : UTC 2020-04-05 09:56:19
Программа кодирования : mkvmerge v45.0.0 ('Heaven in Pennies') 64-bit
Библиотека кодирования : libebml v1.3.10 + libmatroska v1.5.2
Attachments : poster.jpg

Видео
Идентификатор : 1
Формат : HEVC
Формат/Информация : High Efficiency Video Coding
Профиль формата : Main 10@L5.1@High
HDR format : SMPTE ST 2086, HDR10 compatible
Идентификатор кодека : V_MPEGH/ISO/HEVC
Продолжительность : 2 ч. 9 м.
Битрейт : 50,5 Мбит/сек
Ширина : 3 840 пикселей
Высота : 2 160 пикселей
Соотношение сторон : 16:9
Режим частоты кадров : Постоянный
Частота кадров : 23,976 (24000/1001) кадра/сек
Цветовое пространство : YUV
Субдискретизация насыщенности : 4:2:0 (Type 2)
Битовая глубина : 10 бит
Бит/(Пиксели*Кадры) : 0.254
Размер потока : 45,6 Гбайт (75%)
Default : Да
Forced : Нет
Цветовой диапазон : Limited
Основные цвета : BT.2020
Характеристики трансфера : PQ
Коэффициенты матрицы : BT.2020 non-constant
Mastering display color primaries : Display P3
Mastering display luminance : min: 0.0050 cd/m2, max: 4000 cd/m2
Maximum Content Light Level : 3995 cd/m2
Maximum Frame-Average Light Level : 2345 cd/m2

Аудио #1
Идентификатор : 2
Формат : AC-3
Формат/Информация : Audio Coding 3
Коммерческое название : Dolby Digital
Идентификатор кодека : A_AC3
Продолжительность : 2 ч. 9 м.
Вид битрейта : Постоянный
Битрейт : 384 Кбит/сек
Каналы : 6 каналов
Channel layout : L R C LFE Ls Rs
Частота : 48,0 КГц
Частота кадров : 31,250 кадров/сек (1536 SPF)
Метод сжатия : С потерями
Размер потока : 356 Мбайт (1%)
Заголовок : Dub, iTunes
Язык : Russian
Service kind : Complete Main
Default : Да
Forced : Нет

Аудио #2
Идентификатор : 3
Формат : AC-3
Формат/Информация : Audio Coding 3
Коммерческое название : Dolby Digital
Идентификатор кодека : A_AC3
Продолжительность : 2 ч. 9 м.
Вид битрейта : Постоянный
Битрейт : 256 Кбит/сек
Каналы : 2 канала
Channel layout : L R
Частота : 48,0 КГц
Частота кадров : 31,250 кадров/сек (1536 SPF)
Метод сжатия : С потерями
Размер потока : 237 Мбайт (0%)
Заголовок : MVO, Первый канал
Язык : Russian
Service kind : Complete Main
Default : Нет
Forced : Нет

Аудио #3
Идентификатор : 4
Формат : DTS XLL
Формат/Информация : Digital Theater Systems
Коммерческое название : DTS-HD Master Audio
Идентификатор кодека : A_DTS
Продолжительность : 2 ч. 9 м.
Вид битрейта : Переменный
Битрейт : 2 352 Кбит/сек
Каналы : 6 каналов
Channel layout : C L R Ls Rs LFE
Частота : 48,0 КГц
Частота кадров : 93,750 кадра/сек (512 SPF)
Битовая глубина : 16 бит
Метод сжатия : Без потерь
Размер потока : 2,13 Гбайт (3%)
Заголовок : А. Гаврилов
Язык : Russian
Default : Нет
Forced : Нет

Аудио #4
Идентификатор : 5
Формат : DTS XLL
Формат/Информация : Digital Theater Systems
Коммерческое название : DTS-HD Master Audio
Идентификатор кодека : A_DTS
Продолжительность : 2 ч. 9 м.
Вид битрейта : Переменный
Битрейт : 2 354 Кбит/сек
Каналы : 6 каналов
Channel layout : C L R Ls Rs LFE
Частота : 48,0 КГц
Частота кадров : 93,750 кадра/сек (512 SPF)
Битовая глубина : 16 бит
Метод сжатия : Без потерь
Размер потока : 2,13 Гбайт (3%)
Заголовок : Ю. Живов
Язык : Russian
Default : Нет
Forced : Нет

Аудио #5
Идентификатор : 6
Формат : DTS XLL
Формат/Информация : Digital Theater Systems
Коммерческое название : DTS-HD Master Audio
Идентификатор кодека : A_DTS
Продолжительность : 2 ч. 9 м.
Вид битрейта : Переменный
Битрейт : 2 350 Кбит/сек
Каналы : 6 каналов
Channel layout : C L R Ls Rs LFE
Частота : 48,0 КГц
Частота кадров : 93,750 кадра/сек (512 SPF)
Битовая глубина : 16 бит
Метод сжатия : Без потерь
Размер потока : 2,13 Гбайт (3%)
Заголовок : А. Кашкин
Язык : Russian
Default : Нет
Forced : Нет

Аудио #6
Идентификатор : 7
Формат : DTS XLL
Формат/Информация : Digital Theater Systems
Коммерческое название : DTS-HD Master Audio
Идентификатор кодека : A_DTS
Продолжительность : 2 ч. 9 м.
Вид битрейта : Переменный
Битрейт : 2 102 Кбит/сек
Каналы : 6 каналов
Channel layout : C L R Ls Rs LFE
Частота : 48,0 КГц
Частота кадров : 93,750 кадра/сек (512 SPF)
Битовая глубина : 16 бит
Метод сжатия : Без потерь
Размер потока : 1,90 Гбайт (3%)
Заголовок : диктор CDV "Cristal Digital Video"
Язык : Russian
Default : Нет
Forced : Нет

Аудио #7
Идентификатор : 8
Формат : AC-3
Формат/Информация : Audio Coding 3
Коммерческое название : Dolby Digital
Идентификатор кодека : A_AC3
Продолжительность : 2 ч. 9 м.
Вид битрейта : Постоянный
Битрейт : 192 Кбит/сек
Каналы : 2 канала
Channel layout : L R
Частота : 48,0 КГц
Частота кадров : 31,250 кадров/сек (1536 SPF)
Метод сжатия : С потерями
Размер потока : 178 Мбайт (0%)
Заголовок : С. Визгунов
Язык : Russian
Service kind : Complete Main
Default : Нет
Forced : Нет

Аудио #8
Идентификатор : 9
Формат : AC-3
Формат/Информация : Audio Coding 3
Коммерческое название : Dolby Digital
Идентификатор кодека : A_AC3
Продолжительность : 2 ч. 9 м.
Вид битрейта : Постоянный
Битрейт : 192 Кбит/сек
Каналы : 2 канала
Channel layout : L R
Частота : 48,0 КГц
Частота кадров : 31,250 кадров/сек (1536 SPF)
Метод сжатия : С потерями
Размер потока : 178 Мбайт (0%)
Заголовок : Н. Антонов
Язык : Russian
Service kind : Complete Main
Default : Нет
Forced : Нет

Аудио #9
Идентификатор : 10
Формат : MLP FBA 16-ch
Формат/Информация : Meridian Lossless Packing FBA with 16-channel presentation
Коммерческое название : Dolby TrueHD with Dolby Atmos
Идентификатор кодека : A_TRUEHD
Продолжительность : 2 ч. 9 м.
Вид битрейта : Переменный
Битрейт : 5 398 Кбит/сек
Максимальный битрейт : 8 448 Кбит/сек
Каналы : 8 каналов
Channel layout : L R C LFE Ls Rs Lb Rb
Частота : 48,0 КГц
Частота кадров : 1 200,000 кадров/сек (40 SPF)
Метод сжатия : Без потерь
Размер потока : 4,88 Гбайт (8%)
Язык : English
Default : Нет
Forced : Нет
Number of dynamic objects : 11
Bed channel count : 1 канал
Bed channel configuration : LFE

Аудио #10
Идентификатор : 11
Формат : AC-3
Формат/Информация : Audio Coding 3
Коммерческое название : Dolby Digital
Идентификатор кодека : A_AC3
Продолжительность : 2 ч. 9 м.
Вид битрейта : Постоянный
Битрейт : 640 Кбит/сек
Каналы : 6 каналов
Channel layout : L R C LFE Ls Rs
Частота : 48,0 КГц
Частота кадров : 31,250 кадров/сек (1536 SPF)
Метод сжатия : С потерями
Размер потока : 593 Мбайт (1%)
Язык : English
Service kind : Complete Main
Default : Нет
Forced : Нет

Аудио #11
Идентификатор : 12
Формат : AC-3
Формат/Информация : Audio Coding 3
Коммерческое название : Dolby Digital
Идентификатор кодека : A_AC3
Продолжительность : 2 ч. 9 м.
Вид битрейта : Постоянный
Битрейт : 192 Кбит/сек
Каналы : 2 канала
Channel layout : L R
Частота : 48,0 КГц
Частота кадров : 31,250 кадров/сек (1536 SPF)
Метод сжатия : С потерями
Размер потока : 178 Мбайт (0%)
Заголовок : VO - I.D. - Commentary by director Paul Verhoeven and screenwriter Ed Neumeier
Язык : Russian
Service kind : Complete Main
Default : Нет
Forced : Нет

Аудио #12
Идентификатор : 13
Формат : AC-3
Формат/Информация : Audio Coding 3
Коммерческое название : Dolby Digital
Идентификатор кодека : A_AC3
Продолжительность : 2 ч. 9 м.
Вид битрейта : Постоянный
Битрейт : 192 Кбит/сек
Каналы : 2 канала
Channel layout : L R
Частота : 48,0 КГц
Частота кадров : 31,250 кадров/сек (1536 SPF)
Метод сжатия : С потерями
Размер потока : 178 Мбайт (0%)
Заголовок : Commentary by director Paul Verhoeven and screenwriter Ed Neumeier
Язык : English
Service kind : Complete Main
Default : Нет
Forced : Нет

Аудио #13
Идентификатор : 14
Формат : AC-3
Формат/Информация : Audio Coding 3
Коммерческое название : Dolby Digital
Идентификатор кодека : A_AC3
Продолжительность : 2 ч. 9 м.
Вид битрейта : Постоянный
Битрейт : 192 Кбит/сек
Каналы : 2 канала
Channel layout : L R
Частота : 48,0 КГц
Частота кадров : 31,250 кадров/сек (1536 SPF)
Метод сжатия : С потерями
Размер потока : 178 Мбайт (0%)
Заголовок : Commentary by director Paul Verhoeven, and actors Casper Van Dien, Dina Meyer, and Neil Patrick Harris
Язык : English
Service kind : Complete Main
Default : Нет
Forced : Нет

Текст #1
Идентификатор : 15
Формат : UTF-8
Идентификатор кодека : S_TEXT/UTF8
Идентификатор кодека/Информация : UTF-8 Plain Text
Продолжительность : 1 ч. 58 м.
Битрейт : 78 бит/сек
Count of elements : 1197
Размер потока : 68,1 Кбайт (0%)
Язык : Russian
Default : Нет
Forced : Нет

Текст #2
Идентификатор : 16
Формат : UTF-8
Идентификатор кодека : S_TEXT/UTF8
Идентификатор кодека/Информация : UTF-8 Plain Text
Продолжительность : 1 ч. 58 м.
Битрейт : 52 бит/сек
Count of elements : 1346
Размер потока : 45,2 Кбайт (0%)
Заголовок : full
Язык : English
Default : Нет
Forced : Нет

Текст #3
Идентификатор : 17
Формат : UTF-8
Идентификатор кодека : S_TEXT/UTF8
Идентификатор кодека/Информация : UTF-8 Plain Text
Продолжительность : 2 ч. 2 м.
Битрейт : 53 бит/сек
Count of elements : 1550
Размер потока : 47,7 Кбайт (0%)
Заголовок : SDH
Язык : English
Default : Нет
Forced : Нет

Текст #4
Идентификатор : 18
Формат : UTF-8
Идентификатор кодека : S_TEXT/UTF8
Идентификатор кодека/Информация : UTF-8 Plain Text
Продолжительность : 2 ч. 2 м.
Битрейт : 124 бит/сек
Count of elements : 2231
Размер потока : 112 Кбайт (0%)
Заголовок : Commentary by director Paul Verhoeven and screenwriter Ed Neumeier
Язык : English
Default : Нет
Forced : Нет

Текст #5
Идентификатор : 19
Формат : UTF-8
Идентификатор кодека : S_TEXT/UTF8
Идентификатор кодека/Информация : UTF-8 Plain Text
Продолжительность : 2 ч. 2 м.
Битрейт : 117 бит/сек
Count of elements : 2419
Размер потока : 105 Кбайт (0%)
Заголовок : Commentary by director Paul Verhoeven, and actors Casper Van Dien, Dina Meyer, and Neil Patrick Harris
Язык : English
Default : Нет
Forced : Нет

Меню
00:00:00.000 : en:Start
00:09:44.834 : en:One Year Earlier
00:14:09.140 : en:Jump Ball
00:23:42.504 : en:Last Dance
00:33:07.777 : en:Federal Network
00:40:21.419 : en:Sgt. Zim
00:48:03.631 : en:Showers
00:59:32.402 : en:No. 2 Chair
01:04:55.683 : en:Live Fire Exercise
01:12:59.333 : en:Punishment
01:18:48.307 : en:Emergency Evasion
01:28:52.702 : en:Rico Calls Home
01:42:45.618 : en:Federal Network
01:47:34.448 : en:A Mistake
01:53:04.403 : en:Klendathu Attack
01:55:43.395 : en:General Retreat


_________________
Проголосуй за трекер Открытый торрент трекер - RUS-MEDIA.ORG

Проголосуй Открытый торрент трекер - RUS-MEDIA.ORG


Вернуться к началу
 Профиль Отправить личное сообщение  
 
   Похожие торренты   Автор   Торрент   Размер 
В этой теме нет новых непрочитанных сообщений. Звёздный десант / Starship Troopers (Пол Верховен) [1997 г., Фантастика, боевик, триллер, приключения, UHD BDRip-HEVC 1080p | HDR] Dub

zorgi

8 | 0

13.64 ГБ

В этой теме нет новых непрочитанных сообщений. Звездный десант / Starship Troopers [фантастика, боевик, триллер, 1997] BDRemux 1080p, Dub

salma3

0 | 0

36.96 ГБ

В этой теме нет новых непрочитанных сообщений. Человек-паук: Вдали от дома / Spider-Man: Far from Home [Фантастика, боевик, приключения, 2019] UHD BDRemux 2160p, Dub [iTunes] [4K]

salma3

0 | 0

52.58 ГБ

В этой теме нет новых непрочитанных сообщений. Аладдин / Aladdin [Мюзикл, фэнтези, приключения, 2019] UHD UHD BDRemux 2160p, Dub [iTunes] [4K]

salma3

4 | 10

49.13 ГБ

В этой теме нет новых непрочитанных сообщений. Капитан Марвел / Captain Marvel [Фантастика, боевик, приключения, 2019] UHD BDRemux 2160p, Dub [Лицензия] [4K]

salma3

0 | 0

45.73 ГБ

В этой теме нет новых непрочитанных сообщений. Халк / Hulk [Фантастика, боевик, 2003] UHD BDRemux 2160p, Dub [4K] [Лицензия]

salma3

0 | 1

77.98 ГБ

В этой теме нет новых непрочитанных сообщений. Хэнкок / Hancock [Фантастика, боевик, драма, 2008] UHD BDRemux 2160p, Dub [4K] [Театральная версия]

salma3

0 | 0

40.33 ГБ


Начать новую тему Ответить на тему  [ 1 сообщение ] 




Для Мосгорсуда, Роскомнадзора и рекламодателей:: rstracker[собака]yandex.ru
cron