Торрент файл
скачать торрент магнет ссылка Добавлен: 27 июл 2021, 22:30
Размер: 3.72 ГБ
Сидеров: 11
Личеров: 0
Статус: (salma3)
Автор

СообщениеДобавлено: 27 июл 2021, 22:30 

Не в сети
Супермодератор
Аватара пользователя
Дата регистрации:
15 фев 2012, 16:44
Возраст: 32
Спасибо: 8321 / 2148
Сообщения: 97229
Год выхода: 2008
Жанр: триллер, драма, криминал
Режиссер: Оливер Блэкберн

В ролях: Роберт Болтер, Шан Брекин, Том Бёрк, Никола Берли, Джулиан Моррис, Джей Тейлор, Джэми Уинстон

О фильме:
Три девушки, приехавшие на Ибицу поразвлечься, знакомятся в ночном клубе с парнями, чей уровень дохода заметно превышает их собственный. Приняв приглашение отдохнуть на борту роскошной яхты, одна из них, после обильного возлияния, погибает. Начавшиеся споры о том, что делать дальше, приводят к безжалостной борьбе за выживание.



Страна: Великобритания
Продолжительность: 01:39:20
Перевод: Профессиональный (двухголосый закадровый) лицензия

Файл
Формат: Matroska
Качество: BDRip 720p
Видео: 1280x690 at 23.976 fps, x264@L4.1, ~4713 kbps, 0.223 bpp
Аудио 1: AC3, 2 ch, ~192 kbps - | Русский | -
Аудио 2: AC3, 6 ch, ~448 kbps - | Английский | -
Субтитры: Английские
Формат субтитров: softsub (SRT)

***Релиз от: -=DoMiNo=-

x264 [info]: frame I:836 Avg QP:14.87 size: 84072
x264 [info]: frame P:31635 Avg QP:16.66 size: 39934
x264 [info]: frame B:110446 Avg QP:18.64 size: 19722

General
Format : Matroska
Format version : Version 4
File size : 3.72 GiB
Duration : 1 h 39 min
Overall bit rate : 5 355 kb/s
Movie name : Морская прогулка.(2008).BDRip.x264.720p.[-=DoMiNo=-]
Encoded date : UTC 2021-07-27 15:45:22
Writing application : mkvmerge v59.0.0 ('Shining Star') 64-bit
Writing library : libebml v1.4.2 + libmatroska v1.6.4
Cover : Yes
Attachments : Cover.jpg / Cover 2.jpg

Video
ID : 1
Format : AVC
Format/Info : Advanced Video Codec
Format profile : High@L4.1
Format settings : CABAC / 9 Ref Frames
Format settings, CABAC : Yes
Format settings, Reference : 9 frames
Codec ID : V_MPEG4/ISO/AVC
Duration : 1 h 39 min
Bit rate : 4 713 kb/s
Width : 1 280 pixels
Height : 690 pixels
Display aspect ratio : 1.85:1
Frame rate mode : Constant
Frame rate : 23.976 (24000/1001) FPS
Color space : YUV
Chroma subsampling : 4:2:0
Bit depth : 8 bits
Scan type : Progressive
Bits/(Pixel*Frame) : 0.223
Stream size : 3.27 GiB (88%)
Title : -=DoMiNo=-
Writing library : x264 core 164 r3065+55M 280faca t_mod_New [(8 & 10)-bit@all X86_64]
Encoding settings : cabac=1 / ref=9 / deblock=1:-3:-3 / analyse=0x3:0x133 / me=umh / subme=10 / psy=1 / fade_compensate=0.00 / psy_rd=1.00:0.15 / mixed_ref=1 / me_range=48 / chroma_me=1 / trellis=2 / 8x8dct=1 / cqm=0 / deadzone=21,11 / fast_pskip=0 / chroma_qp_offset=-3 / threads=24 / lookahead_threads=5 / sliced_threads=0 / nr=0 / decimate=1 / interlaced=0 / bluray_compat=0 / constrained_intra=0 / fgo=0 / bframes=10 / b_pyramid=2 / b_adapt=2 / b_bias=0 / direct=1 / weightb=1 / open_gop=0 / weightp=2 / keyint=240 / keyint_min=23 / scenecut=40 / intra_refresh=0 / rc_lookahead=60 / rc=crf / mbtree=0 / crf=19.5000 / qcomp=0.60 / qpmin=0:0:0 / qpmax=69:69:69 / qpstep=4 / vbv_maxrate=50000 / vbv_bufsize=62500 / crf_max=0.0 / nal_hrd=none / filler=0 / ip_ratio=1.40 / pb_ratio=1.30 / aq=3:1.00 / aq-sensitivity=10.00 / aq-factor=1.00:1.00:1.00 / aq2=0 / aq3=0
Language : English
Default : Yes
Forced : No

Audio #1
ID : 2
Format : AC-3
Format/Info : Audio Coding 3
Commercial name : Dolby Digital
Codec ID : A_AC3
Duration : 1 h 39 min
Bit rate mode : Constant
Bit rate : 192 kb/s
Channel(s) : 2 channels
Channel layout : L R
Sampling rate : 48.0 kHz
Frame rate : 31.250 FPS (1536 SPF)
Compression mode : Lossy
Stream size : 136 MiB (4%)
Title : AC3 2.0ch 192kbps - двухголосый (R5)
Language : Russian
Service kind : Complete Main
Default : Yes
Forced : No

Audio #2
ID : 3
Format : AC-3
Format/Info : Audio Coding 3
Commercial name : Dolby Digital
Codec ID : A_AC3
Duration : 1 h 39 min
Bit rate mode : Constant
Bit rate : 448 kb/s
Channel(s) : 6 channels
Channel layout : L R C LFE Ls Rs
Sampling rate : 48.0 kHz
Frame rate : 31.250 FPS (1536 SPF)
Compression mode : Lossy
Stream size : 318 MiB (8%)
Language : English
Service kind : Complete Main
Default : No
Forced : No

Text
ID : 4
Format : UTF-8
Codec ID : S_TEXT/UTF8
Codec ID/Info : UTF-8 Plain Text
Duration : 1 h 32 min
Bit rate : 38 b/s
Count of elements : 824
Stream size : 26.1 KiB (0%)
Language : English
Default : No
Forced : No

Menu
00:00:00.000 : Chapter 1
00:08:42.146 : Chapter 2
00:15:27.927 : Chapter 3
00:22:37.856 : Chapter 4
00:31:53.578 : Chapter 5
00:40:09.824 : Chapter 6
00:47:46.321 : Chapter 7
00:56:41.398 : Chapter 8
01:11:23.279 : Chapter 9
01:19:30.557 : Chapter 10
01:26:25.930 : Chapter 11
01:33:06.455 : Chapter 12


_________________
Проголосуй за трекер Открытый торрент трекер - RUS-MEDIA.ORG

Проголосуй Открытый торрент трекер - RUS-MEDIA.ORG


Вернуться к началу
 Профиль Отправить личное сообщение  
 
   Похожие торренты   Автор   Торрент   Размер 
В этой теме нет новых непрочитанных сообщений. Простой план / A Simple Plan [триллер, драма, криминал, 1998] BDRip 720p, Dvo

salma3

0 | 0

5.75 ГБ

В этой теме нет новых непрочитанных сообщений. Прослушка / The Wire [S01-05] [триллер, драма, криминал, 2002-2008] BDRip 720p, Mvo

salma3

0 | 0

254.8 ГБ

В этой теме нет новых непрочитанных сообщений. Морская полиция: Новый Орлеан / NCIS: New Orleans [06x04 из 24] [Драма, криминал, 2019] WEBRip 1080p, Dvo [Gears Media]

salma3

0 | 0

11.54 ГБ

В этой теме нет новых непрочитанных сообщений. Морская полиция: Спецотдел / NCIS: Naval Criminal Investigative Service [17x04 из 24] [Драма, комедия, детектив, 2019] WEBRip 720p, Dvo [Gears Media]

salma3

0 | 0

4.07 ГБ

В этой теме нет новых непрочитанных сообщений. Бесплатные деньги / Money for Nothing [Драма, комедия, криминал, 1993] BDRip 720p, Dvo

salma3

0 | 0

2.23 ГБ

В этой теме нет новых непрочитанных сообщений. Преступник / Felon (Рик Роман Во) [2008 г., криминал, драма, BDRip 720p] Mvo + Eng

zorgi

4 | 0

3 ГБ

В этой теме нет новых непрочитанных сообщений. Трое из ада / 3 from Hell / Three from Hell [Криминал, триллер, 2019] BDRip 720p, Dvo [Unrated]

salma3

0 | 0

9.59 ГБ


Начать новую тему Ответить на тему  [ 1 сообщение ] 




Для Мосгорсуда, Роскомнадзора и рекламодателей:: rstracker[собака]yandex.ru
cron