COVID-19 - Последняя информация о коронавирусе на сайте Минздрава




Торрент файл
скачать торрент магнет ссылка Добавлен: 16 июл 2021, 19:40
Размер: 3.3 ГБ
Сидеров: 24
Личеров: 4
Статус: (salma3)
Автор

СообщениеДобавлено: 16 июл 2021, 19:40 

Не в сети
Супермодератор
Аватара пользователя
Дата регистрации:
15 фев 2012, 16:44
Возраст: 32
Спасибо: 8304 / 2148
Сообщения: 97085
Год выхода: 2021
Жанр: Боевик, триллер
Режиссер: Джонатан Хенсли

В ролях: Лиам Нисон, Лоренс Фишбёрн, Бенджамин Уокер, Эмбер Мидфандер, Маркус Томас, Холт Маккэллани, Мартин Сенсмейер, Мэтт МакКой, Мэтт Сэлинджер, Чад Брюс

О фильме:
Север Канады. Ненадёжный апрельский лёд, вес грузовика — 33 тонны. Проехать по замерзшей поверхности озера возможно только на определенной скорости, а остановка или ускорение означают верную смерть. Но именно такая задача стоит перед колонной грузовиков — только они могут спасти людей, оказавшихся в обрушившейся алмазной шахте. Однако ни трескающийся под колёсами лёд, ни снежная буря не сравнятся с испытаниями, которые ждут водителей впереди.



Страна: США
Продолжительность: 01:49:15
Перевод: Профессиональный (полное дублирование)[iTunes]

Файл
Качество: WEB-DL 1080p
Видео: MPEG-4 AVC, 1920x800, 3583 Kbit/s, 23.976 fps
Аудио #01: 48 kHz, AC3, 5.1, 384 Kbps | iTunes | RUS
Аудио #02: 48 kHz, AC3, 5.1, 384 Kbps | Оригинал | ENG
Субтитры: Русские (Forced, full), английские

General
Unique ID : 83434513046151833866629660544884416490 (0x3EC4E717CFEB73F3A839142D80D21FEA)
Complete name : G:VideoThe.Ice.Road.2021.WEB-DL.1080p.seleZen.mkv
Format : Matroska
Format version : Version 4
File size : 3.30 GiB
Duration : 1 h 48 min
Overall bit rate : 4 353 kb/s
Movie name : The Ice Road 2021 from seleZen
Encoded date : UTC 2021-07-16 12:48:34
Writing application : mkvmerge v53.0.0 ('Fool's Gold') 64-bit
Writing library : libebml v1.4.1 + libmatroska v1.6.2

Video
ID : 1
Format : AVC
Format/Info : Advanced Video Codec
Format profile : High@L4.1
Format settings : CABAC / 4 Ref Frames
Format settings, CABAC : Yes
Format settings, Reference : 4 frames
Codec ID : V_MPEG4/ISO/AVC
Duration : 1 h 48 min
Bit rate : 3 583 kb/s
Width : 1 920 pixels
Height : 800 pixels
Display aspect ratio : 2.40:1
Frame rate mode : Constant
Frame rate : 23.976 (24000/1001) FPS
Color space : YUV
Chroma subsampling : 4:2:0
Bit depth : 8 bits
Scan type : Progressive
Bits/(Pixel*Frame) : 0.097
Stream size : 2.72 GiB (82%)
Language : English
Default : Yes
Forced : No

Audio #1
ID : 2
Format : AC-3
Format/Info : Audio Coding 3
Commercial name : Dolby Digital
Codec ID : A_AC3
Duration : 1 h 48 min
Bit rate mode : Constant
Bit rate : 384 kb/s
Channel(s) : 6 channels
Channel layout : L R C LFE Ls Rs
Sampling rate : 48.0 kHz
Frame rate : 31.250 FPS (1536 SPF)
Compression mode : Lossy
Stream size : 298 MiB (9%)
Title : iTunes
Language : Russian
Service kind : Complete Main
Default : Yes
Forced : Yes

Audio #2
ID : 3
Format : AC-3
Format/Info : Audio Coding 3
Commercial name : Dolby Digital
Codec ID : A_AC3
Duration : 1 h 48 min
Bit rate mode : Constant
Bit rate : 384 kb/s
Channel(s) : 6 channels
Channel layout : L R C LFE Ls Rs
Sampling rate : 48.0 kHz
Frame rate : 31.250 FPS (1536 SPF)
Compression mode : Lossy
Stream size : 298 MiB (9%)
Title : Original
Language : English
Service kind : Complete Main
Default : No
Forced : No

Text #1
ID : 4
Format : UTF-8
Codec ID : S_TEXT/UTF8
Codec ID/Info : UTF-8 Plain Text
Duration : 1 h 41 min
Bit rate : 2 b/s
Count of elements : 20
Stream size : 1.72 KiB (0%)
Title : Forced
Language : Russian
Default : Yes
Forced : Yes

Text #2
ID : 5
Format : UTF-8
Codec ID : S_TEXT/UTF8
Codec ID/Info : UTF-8 Plain Text
Duration : 1 h 40 min
Bit rate : 68 b/s
Count of elements : 856
Stream size : 50.1 KiB (0%)
Title : Full
Language : Russian
Default : No
Forced : No

Text #3
ID : 6
Format : UTF-8
Codec ID : S_TEXT/UTF8
Codec ID/Info : UTF-8 Plain Text
Duration : 1 h 44 min
Bit rate : 40 b/s
Count of elements : 1112
Stream size : 31.1 KiB (0%)
Title : Full
Language : English
Default : No
Forced : No

Text #4
ID : 7
Format : UTF-8
Codec ID : S_TEXT/UTF8
Codec ID/Info : UTF-8 Plain Text
Duration : 1 h 45 min
Bit rate : 48 b/s
Count of elements : 1360
Stream size : 37.3 KiB (0%)
Title : SDH
Language : English
Default : No
Forced : No

Menu
00:00:00.000 : en:Chapter 2
00:00:15.297 : en:Chapter 3
00:03:08.297 : en:Chapter 4
00:04:32.297 : en:Chapter 5
00:05:54.297 : en:Chapter 6
00:10:52.297 : en:Chapter 7
00:13:44.297 : en:Chapter 8
00:16:31.297 : en:Chapter 9
00:17:03.297 : en:Chapter 10
00:19:46.297 : en:Chapter 11
00:21:59.297 : en:Chapter 12
00:25:41.297 : en:Chapter 13
00:26:24.297 : en:Chapter 14
00:27:58.297 : en:Chapter 15
00:38:45.297 : en:Chapter 16
00:41:06.297 : en:Chapter 17
00:46:02.297 : en:Chapter 18
00:47:46.297 : en:Chapter 19
00:48:16.297 : en:Chapter 20
00:53:12.297 : en:Chapter 21
01:01:44.297 : en:Chapter 22
01:03:54.297 : en:Chapter 23
01:05:28.297 : en:Chapter 24
01:12:40.297 : en:Chapter 25
01:17:07.297 : en:Chapter 26
01:22:48.297 : en:Chapter 27
01:24:36.297 : en:Chapter 28
01:28:41.297 : en:Chapter 29
01:35:32.297 : en:Chapter 30
01:37:44.297 : en:Chapter 31
01:41:20.297 : en:Chapter 32
01:43:10.297 : en:End Credits


Релиз:


_________________
Проголосуй за трекер Открытый торрент трекер - RUS-MEDIA.ORG

Проголосуй Открытый торрент трекер - RUS-MEDIA.ORG


Скачать книги и аудио книги через торрент


Вернуться к началу
 Профиль Отправить личное сообщение  
 
   Похожие торренты   Автор   Торрент   Размер 
В этой теме нет новых непрочитанных сообщений. Ледяной драйв / The Ice Road [Боевик, триллер, 2021] WEB-DLRip, Dub [iTunes]

salma3

1 | 5

1.46 ГБ

В этой теме нет новых непрочитанных сообщений. Ледяной драйв / The Ice Road [Боевик, триллер, 2021] WEB-DL-HEVC 2160p, Dub [iTunes] [4K]

salma3

0 | 0

12.11 ГБ

В этой теме нет новых непрочитанных сообщений. Дальний космос / Stowaway [Фантастика, триллер, драма, 2021] WEB-DL 1080p, Dub [iTunes]

salma3

43 | 12

4.68 ГБ

В этой теме нет новых непрочитанных сообщений. Кодекс киллера / The Protege [Боевик, триллер, криминал, 2021] WEB-DL 720p, Dub [iTunes]

salma3

10 | 4

3.06 ГБ

В этой теме нет новых непрочитанных сообщений. Форсаж 9 / F9 [Боевик, триллер, криминал, 2021] ВDRip 1080p, Dub [iTunes] [Театральная версия]

salma3

0 | 0

14.27 ГБ

В этой теме нет новых непрочитанных сообщений. Принцесса якудза / Yakuza Princess [Триллер, криминал, 2021] WEB-DLRip-HEVC 1080p, Dub [iTunes]

salma3

2 | 0

2.03 ГБ

В этой теме нет новых непрочитанных сообщений. Тихое место 2 / A Quiet Place Part II [Ужасы, фантастика, триллер, 2021] WEB-DL 1080p, Dub [iTunes]

salma3

0 | 0

7.66 ГБ


Начать новую тему Ответить на тему  [ 1 сообщение ] 




Для Мосгорсуда, Роскомнадзора и рекламодателей:: rstracker[собака]yandex.ru
cron