Торрент файл
скачать торрент магнет ссылка Добавлен: 28 апр 2021, 20:40
Размер: 4.9 ГБ
Сидеров: 3
Личеров: 0
Статус: (salma3)
Автор

СообщениеДобавлено: 28 апр 2021, 20:40 

Не в сети
Супермодератор
Аватара пользователя
Дата регистрации:
15 фев 2012, 16:44
Возраст: 33
Спасибо: 8325 / 2148
Сообщения: 97229
Год выхода: 2004
Жанр: Комедия, мелодрама, спорт
Режиссер: Ричард Лонкрэйн

В ролях: Кирстен Данст, Пол Беттани, Элеанор Брон, Николай Костер-Валдау, Джон Фавро, Бернард Хилл, Роберт Линдси, Джеймс МакЭвой, Сэм Нилл, Остин Николс


Питер – типичный неудачник, ему одинаково не везет как в личной жизни, так и на профессиональном поприще. Каким-то чудом горе-спортсмену, чья фамилия находится в самом конце мирового теннисного рейтинга, удается стать участником престижного Уимблдонского турнира. Там-то он и встречает Лиззи – звезду американского тенниса, в которую безумно влюбляется. Вдохновленный обретенной любовью и собственным мастерством на корте, Питер все выше поднимается по турнирной лестнице. Еще немного, и мечта всей его жизни – выиграть чемпионский кубок – вот-вот станет реальностью, если, конечно, удача снова не изменит ему...



Страна: Великобритания, Франция, США
Продолжительность: 01:37:56
Перевод: Дубляж, профессиональный (многоголосый закадровый), профессиональный (двухголосый закадровый)

Файл
Кодек: H.264
Качество: WEB-DLRip 720p
Видео: 1280x720 (16:9), 5233 kbps, 23.976 fps
Звук: Русский (AC-3, 6ch, 448 kbps) DUB
Русский (AC-3, 2ch, 192 kbps) MVO (SDI Media)
Русский (AC-3, 2ch, 192 kbps) MVO (DDV)
Русский (AC-3, 6ch, 448 kbps) DVO (Tycoon)
Английский (E-AC3, 6ch, 640 kbps)
Субтитры: Русские, английские



x264 [info]: frame I:1149 Avg QP:18.28 size:136466
x264 [info]: frame P:36250 Avg QP:19.23 size: 53600
x264 [info]: frame B:103500 Avg QP:21.82 size: 16853
x264 [info]: consecutive B-frames: 4.1% 4.6% 11.1% 27.7% 24.4% 25.6% 1.5% 0.3% 0.2% 0.2% 0.3

General
Unique ID : 524153751156761227725803354953664466 (0x64F2C67119D1264B2FC1C17818C7D2)
Complete name : E:КИНОРУТОРУимблдон (2004) (Open Matte).WEB-DLRip 720p.mkv
Format : Matroska
Format version : Version 4
File size : 4.90 GiB
Duration : 1 h 37 min
Overall bit rate : 7 156 kb/s
Movie name : Уимблдон / Wimbledon (2004) (Open Matte) - #LORDKILL#
Encoded date : UTC 2021-04-28 15:06:28
Writing application : mkvmerge v32.0.0 ('Astral Progressions') 64-bit
Writing library : libebml v1.3.7 + libmatroska v1.5.0

Video
ID : 1
Format : AVC
Format/Info : Advanced Video Codec
Format profile : High@L4.1
Format settings : CABAC / 9 Ref Frames
Format settings, CABAC : Yes
Format settings, Reference : 9 frames
Codec ID : V_MPEG4/ISO/AVC
Duration : 1 h 37 min
Bit rate : 5 233 kb/s
Width : 1 280 pixels
Height : 720 pixels
Display aspect ratio : 16:9
Frame rate mode : Constant
Frame rate : 23.976 (24000/1001) FPS
Color space : YUV
Chroma subsampling : 4:2:0
Bit depth : 8 bits
Scan type : Progressive
Bits/(Pixel*Frame) : 0.237
Stream size : 3.58 GiB (73%)
Writing library : x264 core 159 r2991 1771b55
Encoding settings : cabac=1 / ref=9 / deblock=1:-3:-3 / analyse=0x3:0x113 / me=umh / subme=10 / psy=1 / psy_rd=1.00:0.20 / mixed_ref=1 / me_range=32 / chroma_me=1 / trellis=2 / 8x8dct=1 / cqm=0 / deadzone=21,11 / fast_pskip=0 / chroma_qp_offset=-3 / threads=22 / lookahead_threads=5 / sliced_threads=0 / nr=0 / decimate=1 / interlaced=0 / bluray_compat=0 / constrained_intra=0 / bframes=10 / b_pyramid=2 / b_adapt=2 / b_bias=0 / direct=1 / weightb=1 / open_gop=0 / weightp=2 / keyint=240 / keyint_min=23 / scenecut=40 / intra_refresh=0 / rc=crf / mbtree=0 / crf=19.0 / qcomp=0.60 / qpmin=0 / qpmax=69 / qpstep=4 / ip_ratio=1.40 / pb_ratio=1.30 / aq=1:1.00
Default : Yes
Forced : No

Audio #1
ID : 2
Format : AC-3
Format/Info : Audio Coding 3
Commercial name : Dolby Digital
Codec ID : A_AC3
Duration : 1 h 37 min
Bit rate mode : Constant
Bit rate : 448 kb/s
Channel(s) : 6 channels
Channel layout : L R C LFE Ls Rs
Sampling rate : 48.0 kHz
Frame rate : 31.250 FPS (1536 SPF)
Compression mode : Lossy
Stream size : 314 MiB (6%)
Title : Дубляж
Language : Russian
Service kind : Complete Main
Default : Yes
Forced : No

Audio #2
ID : 3
Format : AC-3
Format/Info : Audio Coding 3
Commercial name : Dolby Digital
Codec ID : A_AC3
Duration : 1 h 37 min
Bit rate mode : Constant
Bit rate : 192 kb/s
Channel(s) : 2 channels
Channel layout : L R
Sampling rate : 48.0 kHz
Frame rate : 31.250 FPS (1536 SPF)
Compression mode : Lossy
Stream size : 134 MiB (3%)
Title : MVO (SDI Media)
Language : Russian
Service kind : Complete Main
Default : No
Forced : No

Audio #3
ID : 4
Format : AC-3
Format/Info : Audio Coding 3
Commercial name : Dolby Digital
Codec ID : A_AC3
Duration : 1 h 37 min
Bit rate mode : Constant
Bit rate : 192 kb/s
Channel(s) : 2 channels
Channel layout : L R
Sampling rate : 48.0 kHz
Frame rate : 31.250 FPS (1536 SPF)
Compression mode : Lossy
Stream size : 134 MiB (3%)
Title : MVO (DDV)
Language : Russian
Service kind : Complete Main
Default : No
Forced : No

Audio #4
ID : 5
Format : AC-3
Format/Info : Audio Coding 3
Commercial name : Dolby Digital
Codec ID : A_AC3
Duration : 1 h 37 min
Bit rate mode : Constant
Bit rate : 448 kb/s
Channel(s) : 6 channels
Channel layout : L R C LFE Ls Rs
Sampling rate : 48.0 kHz
Frame rate : 31.250 FPS (1536 SPF)
Compression mode : Lossy
Stream size : 314 MiB (6%)
Title : DVO (Tycoon)
Language : Russian
Service kind : Complete Main
Default : No
Forced : No

Audio #5
ID : 6
Format : E-AC-3
Format/Info : Enhanced AC-3
Commercial name : Dolby Digital Plus
Codec ID : A_EAC3
Duration : 1 h 37 min
Bit rate mode : Constant
Bit rate : 640 kb/s
Channel(s) : 6 channels
Channel layout : L R C LFE Ls Rs
Sampling rate : 48.0 kHz
Frame rate : 31.250 FPS (1536 SPF)
Compression mode : Lossy
Stream size : 448 MiB (9%)
Language : English
Service kind : Complete Main
Default : No
Forced : No

Text #1
ID : 7
Format : UTF-8
Codec ID : S_TEXT/UTF8
Codec ID/Info : UTF-8 Plain Text
Duration : 1 h 31 min
Bit rate : 124 b/s
Count of elements : 1213
Stream size : 82.9 KiB (0%)
Language : Russian
Default : No
Forced : No

Text #2
ID : 8
Format : UTF-8
Codec ID : S_TEXT/UTF8
Codec ID/Info : UTF-8 Plain Text
Duration : 1 h 31 min
Bit rate : 80 b/s
Count of elements : 1587
Stream size : 53.5 KiB (0%)
Language : English
Default : No
Forced : No




_________________
Проголосуй за трекер Открытый торрент трекер - RUS-MEDIA.ORG

Проголосуй Открытый торрент трекер - RUS-MEDIA.ORG


Вернуться к началу
 Профиль Отправить личное сообщение  
 
   Похожие торренты   Автор   Торрент   Размер 
В этой теме нет новых непрочитанных сообщений. Лузеры / The Losers [боевик, комедия, 2010] WEB-DLRip 720p, Dub [Open Matte]

salma3

0 | 0

3.49 ГБ

В этой теме нет новых непрочитанных сообщений. Правила виноделов / The Cider House Rules [драма, мелодрама, 1999] WEB-DLRip-AVC, Dub [Open Matte]

salma3

0 | 0

2.18 ГБ

В этой теме нет новых непрочитанных сообщений. Куда приводят мечты / What Dreams May Come [фэнтези, драма, мелодрама, 1998] WEB-DLRip-AVC, Dub [Open Matte]

salma3

0 | 0

744.41 МБ

В этой теме нет новых непрочитанных сообщений. Нас приняли! / Accepted [комедия, 2006] WEB-DLRip-AVC, Dub [Open Matte]

salma3

0 | 0

1.45 ГБ

В этой теме нет новых непрочитанных сообщений. Форсаж 4 / Fast & Furious [боевик, триллер, 2009] WEB-DLRip 720p, Dub [Open Matte]

salma3

0 | 0

3.93 ГБ

В этой теме нет новых непрочитанных сообщений. Экстремалы / Extreme Ops [боевик, триллер, приключения, 2002] WEB-DLRip 720p, Dub [Open Matte]

salma3

0 | 0

4.37 ГБ

В этой теме нет новых непрочитанных сообщений. Форсаж 6 / Furious 6 [боевик, триллер, криминал, 2013] WEB-DLRip 720p, Dub [Open Matte] [Театральная версия]

salma3

0 | 0

5.3 ГБ


Начать новую тему Ответить на тему  [ 1 сообщение ] 




Для Мосгорсуда, Роскомнадзора и рекламодателей:: rstracker[собака]yandex.ru
cron