Торрент файл
скачать торрент магнет ссылка Добавлен: 02 апр 2021, 20:31
Размер: 8.08 ГБ
Сидеров: 15
Личеров: 9
Статус: (salma3)
Автор

СообщениеДобавлено: 02 апр 2021, 20:31 

Не в сети
Супермодератор
Аватара пользователя
Дата регистрации:
15 фев 2012, 16:44
Возраст: 32
Спасибо: 8320 / 2148
Сообщения: 97229
Год выпуска: 2021
Жанр: Фантастика, боевик, триллер
Режиссер: Адам Вингард

В ролях: Александр Скарсгард, Милли Бобби Браун, Ребекка Холл, Брайан Тайри Генри, Сюн Огури, Эйса Гонсалес, Джулиан Деннисон, Лэнс Реддик, Кайл Чандлер, Демиан Бишир

О фильме:
Конг и группа ученых отправляются в опасное путешествие в поисках родного дома гиганта. Среди них девочка Джия, единственная, кто умеет общаться с Конгом. Неожиданно они сталкиваются с разъяренным Годзиллой, разрушающим все на своем пути. Битва двух титанов, спровоцированная неведомыми силами — лишь малая часть тайны, спрятанной в недрах Земли.



Страна: США, Австралия, Канада, Индия
Продолжительность: 01:53:09
Перевод: Авторский [Яроцкий]

Файл
Качество: WEBRip 1080p | A
Видео: AVC/H.264, 1920x800, ~8807 kbps, 23,976 fps
Аудио 1: AC3, 6 ch, 640 Kbps - Русский
Аудио 2: E-AC3, 6 ch, 768 Kbps - Английский
Субтитры: Русские, английские

Общее
Уникальный идентификатор : 99465397295835872270982498514847837580 (0x4AD456B59557C77E752F2A8D3152AD8C)
Полное имя : Godzilla vs.Kong.2021.WEBRip.1080p.mkv
Формат : Matroska
Версия формата : Version 4
Размер файла : 8,08 Гбайт
Продолжительность : 1 ч. 53 м.
Общий поток : 10,2 Мбит/сек
Дата кодирования : UTC 2021-04-02 13:14:17
Программа кодирования : mkvmerge v23.0.0 ('The Bride Said No') 64-bit
Библиотека кодирования : libebml v1.3.6 + libmatroska v1.4.9

Видео
Идентификатор : 1
Формат : AVC
Формат/Информация : Advanced Video Codec
Профиль формата : High@L4
Настройки формата : CABAC / 4 Ref Frames
Параметр CABAC формата : Да
Параметр RefFrames формата : 4 кадра
Идентификатор кодека : V_MPEG4/ISO/AVC
Продолжительность : 1 ч. 53 м.
Вид битрейта : Постоянный
Битрейт : 8 807 Кбит/сек
Номинальный битрейт : 10 000 Кбит/сек
Ширина : 1 920 пикселей
Высота : 800 пикселей
Соотношение сторон : 2,40:1
Режим частоты кадров : Постоянный
Частота кадров : 23,976 (24000/1001) кадра/сек
Цветовое пространство : YUV
Субдискретизация насыщенности : 4:2:0
Битовая глубина : 8 бит
Тип развёртки : Прогрессивная
Бит/(Пиксели*Кадры) : 0.239
Размер потока : 6,96 Гбайт (86%)
Язык : English
Default : Да
Forced : Нет
Цветовой диапазон : Limited
Основные цвета : BT.709
Характеристики трансфера : BT.709
Коэффициенты матрицы : BT.709

Аудио #1
Идентификатор : 2
Формат : AC-3
Формат/Информация : Audio Coding 3
Коммерческое название : Dolby Digital
Идентификатор кодека : A_AC3
Продолжительность : 1 ч. 53 м.
Вид битрейта : Постоянный
Битрейт : 640 Кбит/сек
Каналы : 6 каналов
Channel layout : L R C LFE Ls Rs
Частота : 48,0 КГц
Частота кадров : 31,250 кадров/сек (1536 SPF)
Метод сжатия : С потерями
Размер потока : 518 Мбайт (6%)
Заголовок : AVO_М.Яроцкий
Язык : Russian
Service kind : Complete Main
Default : Да
Forced : Нет

Аудио #2
Идентификатор : 3
Формат : E-AC-3 JOC
Формат/Информация : Enhanced AC-3 with Joint Object Coding
Коммерческое название : Dolby Digital Plus with Dolby Atmos
Идентификатор кодека : A_EAC3
Продолжительность : 1 ч. 53 м.
Вид битрейта : Постоянный
Битрейт : 768 Кбит/сек
Каналы : 6 каналов
Channel layout : L R C LFE Ls Rs
Частота : 48,0 КГц
Частота кадров : 31,250 кадров/сек (1536 SPF)
Метод сжатия : С потерями
Размер потока : 622 Мбайт (8%)
Язык : English
Service kind : Complete Main
Default : Нет
Forced : Нет
Complexity index : 16
Number of dynamic objects : 15
Bed channel count : 1 канал
Bed channel configuration : LFE

Текст #1
Идентификатор : 4
Формат : UTF-8
Идентификатор кодека : S_TEXT/UTF8
Идентификатор кодека/Информация : UTF-8 Plain Text
Продолжительность : 1 ч. 44 м.
Битрейт : 67 бит/сек
Count of elements : 980
Размер потока : 51,6 Кбайт (0%)
Заголовок : Full
Язык : Russian
Default : Нет
Forced : Нет

Текст #2
Идентификатор : 5
Формат : UTF-8
Идентификатор кодека : S_TEXT/UTF8
Идентификатор кодека/Информация : UTF-8 Plain Text
Продолжительность : 1 ч. 45 м.
Битрейт : 50 бит/сек
Count of elements : 1415
Размер потока : 39,5 Кбайт (0%)
Заголовок : Full
Язык : English
Default : Нет
Forced : Нет



_________________
Проголосуй за трекер Открытый торрент трекер - RUS-MEDIA.ORG

Проголосуй Открытый торрент трекер - RUS-MEDIA.ORG


Вернуться к началу
 Профиль Отправить личное сообщение  
 
   Похожие торренты   Автор   Торрент   Размер 
В этой теме нет новых непрочитанных сообщений. Годзилла против Конга / Godzilla vs. Kong [Фантастика, боевик, триллер, 2021] WEB-DLRip, Avo

salma3

22 | 3

1.46 ГБ

В этой теме нет новых непрочитанных сообщений. Годзилла против Конга / Godzilla vs. Kong [Фантастика, боевик, триллер, 2021] WEB-DL 720p, Avo

salma3

33 | 0

4.35 ГБ

В этой теме нет новых непрочитанных сообщений. Годзилла против Конга / Godzilla vs. Kong [Боевик, фантастика, 2021] WEB-DL-HEVC 2160p, Avo [4K]

salma3

3 | 7

15.27 ГБ

В этой теме нет новых непрочитанных сообщений. Годзилла против Конга / Godzilla vs. Kong [Боевик, фантастика, 2021] WEB-DLRip-AVC, Dub [iTunes]

salma3

1 | 1

1.07 ГБ

В этой теме нет новых непрочитанных сообщений. Годзилла против Конга / Godzilla vs. Kong [Фантастика, боевик, 2021] WEB-DL-HEVC 2160p, Dub [iTunes] [4K]

salma3

50 | 9

16.25 ГБ

В этой теме нет новых непрочитанных сообщений. Годзилла 2: Король монстров / Godzilla: King of the Monsters [Фантастика, фэнтези, боевик, 2019] WEBRip 1080p, Mvo

salma3

2916 | 135

3.54 ГБ

В этой теме нет новых непрочитанных сообщений. Годзилла / Godzilla [фантастика, боевик, триллер, 1998] WEB-DL 1080p, Dub [Open Matte]

salma3

9 | 9

11.68 ГБ


Начать новую тему Ответить на тему  [ 1 сообщение ] 




Для Мосгорсуда, Роскомнадзора и рекламодателей:: rstracker[собака]yandex.ru
cron