Торрент файл
скачать торрент магнет ссылка Добавлен: 04 фев 2021, 13:21
Размер: 9.69 ГБ
Сидеров: 0
Личеров: 2
Статус: (salma3)
Автор

СообщениеДобавлено: 04 фев 2021, 13:21 

Не в сети
Супермодератор
Аватара пользователя
Дата регистрации:
15 фев 2012, 16:44
Возраст: 33
Спасибо: 8325 / 2148
Сообщения: 97229
Страна: США, Франция
Жанр: драма, мелодрама
Год выпуска: 2004
Продолжительность: 01:20:31
Режиссер: Ричард Линклейтер

В ролях: Итэн Хоук, Жюли Дельпи, Вернон Добчефф, Луиз Лемуан Торрес, Родольф Поли, Мариан Пластайг, Диаболо, Дени Эврар, Альбер Дельпи, Мари Пийе

О фильме: Когда-то давно, девять лет назад, случайная встреча Джесси и Селин подарила молодым людям несколько восхитительных и трогательных часов в предрассветной Вене. Теперь им снова предстоит увидеть друг друга! У них - несколько часов в предзакатном Париже, в течение которых необходимо решить, каким станет их завтра... Второй фильм из трилогии ("Перед рассветом" (1995), "Перед закатом" (2004), "Перед полуночью" (2013).



Качество: BDRip 1080p
Формат: MKV
Видео: MPEG-4 AVC, 14.9 Mбит/с, 1920x1036, 23.976 кадр/с
Аудио 1: русский, AC3, 384 kbps, 6 ch, 48 kHz [закадровый двухголосый, Премьер видео]
Аудио 2: русский, AC3, 384 kbps, 6 ch, 48 kHz [закадровый одноголосый, Михаил Чадов]
Аудио 3: английский, DTS, 1509 kbps, 6 ch, 48 kHz [оригинал]
Субтитры 1: русские (SRT)
Субтитры 2: английские (SRT)
Главы/чаптеры
Общее
Уникальный идентификатор : 217386456452367445091293383713538965573 (0xA38B1BCD1DE960EE8B0D68D8C80C0045)
Полное имя : D:VideoПеред закатом.2004.BDRip 1080p msltel.mkv
Формат : Matroska
Версия формата : Version 4
Размер файла : 9,69 Гбайт
Продолжительность : 1 ч. 20 м.
Общий поток : 17,2 Мбит/сек
Название фильма : Перед закатом.2004.BDRip msltel
Дата кодирования : UTC 2021-02-04 02:17:49
Программа кодирования : mkvmerge v8.2.0 ('World of Adventure') 64bit
Библиотека кодирования : libebml v1.3.1 + libmatroska v1.4.2

Видео
Идентификатор : 1
Формат : AVC
Формат/Информация : Advanced Video Codec
Профиль формата : High@L4.1
Настройки формата : CABAC / 4 Ref Frames
Параметр CABAC формата : Да
Параметр RefFrames формата : 4 кадра
Идентификатор кодека : V_MPEG4/ISO/AVC
Продолжительность : 1 ч. 20 м.
Битрейт : 14,9 Мбит/сек
Ширина : 1 920 пикселей
Высота : 1 036 пикселей
Соотношение сторон : 1,85:1
Режим частоты кадров : Постоянный
Частота кадров : 23,976 (24000/1001) кадра/сек
Цветовое пространство : YUV
Субдискретизация насыщенности : 4:2:0
Битовая глубина : 8 бит
Тип развёртки : Прогрессивная
Бит/(Пиксели*Кадры) : 0.313
Размер потока : 8,41 Гбайт (87%)
Библиотека кодирования : x264 core 161 r3018 db0d417
Настройки программы : cabac=1 / ref=4 / deblock=1:-3:-3 / analyse=0x3:0x113 / me=umh / subme=10 / psy=1 / psy_rd=1.00:0.00 / mixed_ref=1 / me_range=32 / chroma_me=1 / trellis=2 / 8x8dct=1 / cqm=0 / deadzone=21,11 / fast_pskip=0 / chroma_qp_offset=-2 / threads=12 / lookahead_threads=3 / sliced_threads=0 / nr=0 / decimate=0 / interlaced=0 / bluray_compat=0 / constrained_intra=0 / bframes=11 / b_pyramid=2 / b_adapt=2 / b_bias=0 / direct=1 / weightb=1 / open_gop=0 / weightp=2 / keyint=230 / keyint_min=23 / scenecut=40 / intra_refresh=0 / rc_lookahead=40 / rc=crf / mbtree=0 / crf=18.8 / qcomp=0.60 / qpmin=0 / qpmax=69 / qpstep=4 / vbv_maxrate=62500 / vbv_bufsize=78125 / crf_max=0.0 / nal_hrd=none / filler=0 / ip_ratio=1.40 / pb_ratio=1.30 / aq=3:1.00
Язык : English
Default : Да
Forced : Нет

Аудио #1
Идентификатор : 2
Формат : AC-3
Формат/Информация : Audio Coding 3
Коммерческое название : Dolby Digital
Идентификатор кодека : A_AC3
Продолжительность : 1 ч. 20 м.
Вид битрейта : Постоянный
Битрейт : 384 Кбит/сек
Каналы : 6 каналов
Channel layout : L R C LFE Ls Rs
Частота : 48,0 КГц
Частота кадров : 31,250 кадров/сек (1536 SPF)
Метод сжатия : С потерями
Размер потока : 221 Мбайт (2%)
Заголовок : DVO Премьер видео
Язык : Russian
Service kind : Complete Main
Default : Да
Forced : Нет

Аудио #2
Идентификатор : 3
Формат : AC-3
Формат/Информация : Audio Coding 3
Коммерческое название : Dolby Digital
Идентификатор кодека : A_AC3
Продолжительность : 1 ч. 20 м.
Вид битрейта : Постоянный
Битрейт : 384 Кбит/сек
Каналы : 6 каналов
Channel layout : L R C LFE Ls Rs
Частота : 48,0 КГц
Частота кадров : 31,250 кадров/сек (1536 SPF)
Метод сжатия : С потерями
Задержка видео : 10 с. 876 мс.
Размер потока : 221 Мбайт (2%)
Заголовок : Михаил Чадов
Язык : Russian
Service kind : Complete Main
Default : Нет
Forced : Нет

Аудио #3
Идентификатор : 4
Формат : DTS
Формат/Информация : Digital Theater Systems
Идентификатор кодека : A_DTS
Продолжительность : 1 ч. 20 м.
Вид битрейта : Постоянный
Битрейт : 1 509 Кбит/сек
Каналы : 6 каналов
Channel layout : C L R Ls Rs LFE
Частота : 48,0 КГц
Частота кадров : 93,750 кадра/сек (512 SPF)
Битовая глубина : 24 бит
Метод сжатия : С потерями
Размер потока : 869 Мбайт (9%)
Заголовок : оригинал
Язык : English
Default : Нет
Forced : Нет

Текст #1
Идентификатор : 5
Формат : UTF-8
Идентификатор кодека : S_TEXT/UTF8
Идентификатор кодека/Информация : UTF-8 Plain Text
Продолжительность : 1 ч. 14 м.
Битрейт : 145 бит/сек
Count of elements : 1060
Размер потока : 79,8 Кбайт (0%)
Заголовок : русские
Язык : Russian
Default : Нет
Forced : Нет

Текст #2
Идентификатор : 6
Формат : UTF-8
Идентификатор кодека : S_TEXT/UTF8
Идентификатор кодека/Информация : UTF-8 Plain Text
Продолжительность : 1 ч. 19 м.
Битрейт : 109 бит/сек
Count of elements : 1503
Размер потока : 63,9 Кбайт (0%)
Заголовок : английские
Язык : English
Default : Нет
Forced : Нет

Меню
00:00:00.000 : en:"An Ocean Apart"
00:08:14.911 : en:A part of someone else's memory
00:17:30.841 : en:Walk around, think and write
00:31:35.143 : en:"Memory is a wonderful thing, if you don't have to deal with the past"
00:43:15.301 : en:Characters in that old lady's dream
00:55:57.354 : en:"I have these dreams..."
01:07:15.323 : en:"A Waltz for a Night"

Исходник vs Рип





_________________
Проголосуй за трекер Открытый торрент трекер - RUS-MEDIA.ORG

Проголосуй Открытый торрент трекер - RUS-MEDIA.ORG


Вернуться к началу
 Профиль Отправить личное сообщение  
 
   Похожие торренты   Автор   Торрент   Размер 
В этой теме нет новых непрочитанных сообщений. Хорошая женщина / A Good Woman [Драма, мелодрама, комедия, 2004] WEB-DLRip 720p, Dvo

salma3

0 | 0

3.65 ГБ

В этой теме нет новых непрочитанных сообщений. Серебряный город / Silver City [триллер, драма, детектив, 2004] WEB-DL 1080p, Dvo

salma3

0 | 0

13.21 ГБ

В этой теме нет новых непрочитанных сообщений. Улицы в огне / Streets of Fire [Боевик, мелодрама, криминал, 1984] BDRip-HEVC 1080p, Dvo

salma3

0 | 0

11.91 ГБ

В этой теме нет новых непрочитанных сообщений. Почта Тинто Брасса / Fermo posta Tinto Brass [Эротика, мелодрама, 1995] BDRip 1080p, Dvo

salma3

4 | 0

8.76 ГБ

В этой теме нет новых непрочитанных сообщений. Секс в большом городе / Sex and the City [S01-06] [драма, мелодрама, комедия, 1998-2004] WEB-DL 1080p, Mvo [НТВ+]

salma3

0 | 0

193.61 ГБ

В этой теме нет новых непрочитанных сообщений. Симаррон / Cimarron [Драма, мелодрама, вестерн, 1960] BDRip, Dvo

salma3

0 | 0

2.19 ГБ

В этой теме нет новых непрочитанных сообщений. Секс в большом городе / Sex and the City [S01-06] [драма, мелодрама, комедия, 1998-2004] WEB-DL 1080p, Mvo [НТВ+] [TVShows]

salma3

0 | 0

197.25 ГБ


Начать новую тему Ответить на тему  [ 1 сообщение ] 




Для Мосгорсуда, Роскомнадзора и рекламодателей:: rstracker[собака]yandex.ru
cron
cron