Торрент файл
скачать торрент магнет ссылка Добавлен: 24 дек 2020, 15:36
Размер: 4.6 ГБ
Сидеров: 0
Личеров: 0
Статус: (salma3)
Автор

СообщениеДобавлено: 24 дек 2020, 15:36 

Не в сети
Супермодератор
Аватара пользователя
Дата регистрации:
15 фев 2012, 16:44
Возраст: 33
Спасибо: 8325 / 2148
Сообщения: 97229
Год выхода: 2007
Жанр: драма, мелодрама, комедия
Режиссер: Джо Нуссбаум

В ролях: Аманда Байнс, Сара Пэкстон, Мэтт Лонг, Джек Карпентер, Джереми Ховард, Кристал Хант, Адам Хендершотт, Дэнни Стронг, Сэмм Левин, Либби Минтц

О фильме:
Сидни, поступив в колледж, намерена присоединиться к студенческому сестринству, основанному в своё время её матерью. Правда, у девушки отпадает к этому всякая охота, когда она выясняет, что в некогда славном сообществе ныне заправляет выскочка-блондинка Рейчел. И тогда Сидни примыкает к семёрке «изгоев» колледжа и начинает войну против Рейчел…



Страна: США
Продолжительность: 01:47:23
Перевод: Профессиональный (многоголосый закадровый) (ТНТ)

Файл
Кодек: x264
Качество: BDRip 720p (рип от sv503)
Видео: 1280x544, 5500 Кбит/сек, 23.976 кадров/сек
Звук:
1. Русский; AC3; 2 канала; 48 кГц; 192 Кбит/сек; профессиональный (многоголосый закадровый)
2. Английский; AC3; 6 каналов; 48 кГц; 448 Кбит/сек; оригинал
Субтитры: нет

Общее
Полное имя : Сидни Уайт.mkv
Формат : Matroska
Версия формата : Version 2
Размер файла : 4,60 Гбайт
Продолжительность : 1 ч. 47 м.
Общий поток : 6138 Кбит/сек
Дата кодирования : UTC 2020-12-23 19:06:04
Программа кодирования : mkvmerge v5.8.0 ('No Sleep / Pillow') built on Sep 2 2012 15:37:04
Библиотека кодирования : libebml v1.2.3 + libmatroska v1.3.0

Видео
Идентификатор : 1
Формат : AVC
Формат/Информация : Advanced Video Codec
Профиль формата : High@L4.1
Настройки формата : CABAC / 12 Ref Frames
Параметр CABAC формата : Да
Параметр RefFrames формата : 12 кадров
Режим смешивания : Header stripping
Идентификатор кодека : V_MPEG4/ISO/AVC
Продолжительность : 1 ч. 47 м.
Битрейт : 5500 Кбит/сек
Ширина : 1280 пикселей
Высота : 544 пикселя
Соотношение сторон : 2,35:1
Режим частоты кадров : Постоянный
Частота кадров : 23,976 (24000/1001) кадра/сек
Цветовое пространство : YUV
Субдискретизация насыщенности : 4:2:0
Битовая глубина : 8 бит
Тип развёртки : Прогрессивная
Бит/(Пиксели*Кадры) : 0.329
Размер потока : 4,03 Гбайт (88%)
Заголовок : BDRip 720p by sv503
Библиотека кодирования : x264 core 146 r2538 121396c
Настройки программы : cabac=1 / ref=12 / deblock=1:-3:-3 / analyse=0x3:0x113 / me=umh / subme=11 / psy=1 / psy_rd=1.00:0.00 / mixed_ref=1 / me_range=48 / chroma_me=1 / trellis=2 / 8x8dct=1 / cqm=0 / deadzone=6,6 / fast_pskip=0 / chroma_qp_offset=-2 / threads=6 / lookahead_threads=1 / sliced_threads=0 / nr=0 / decimate=0 / interlaced=0 / bluray_compat=0 / constrained_intra=0 / bframes=7 / b_pyramid=2 / b_adapt=2 / b_bias=0 / direct=3 / weightb=1 / open_gop=0 / weightp=2 / keyint=240 / keyint_min=23 / scenecut=40 / intra_refresh=0 / rc_lookahead=60 / rc=2pass / mbtree=1 / bitrate=5500 / ratetol=1.0 / qcomp=0.70 / qpmin=0 / qpmax=69 / qpstep=4 / cplxblur=20.0 / qblur=0.5 / vbv_maxrate=62500 / vbv_bufsize=78125 / nal_hrd=none / filler=0 / ip_ratio=1.10 / aq=1:0.90 / zones=149175,154478,b=0.4
Язык : English
Default : Да
Forced : Нет

Аудио #1
Идентификатор : 2
Формат : AC-3
Формат/Информация : Audio Coding 3
Коммерческое название : Dolby Digital
Режим смешивания : Header stripping
Идентификатор кодека : A_AC3
Продолжительность : 1 ч. 47 м.
Вид битрейта : Постоянный
Битрейт : 192 Кбит/сек
Каналы : 2 канала
ChannelLayout : L R
Частота : 48,0 КГц
Частота кадров : 31,250 кадров/сек (1536 SPF)
Битовая глубина : 16 бит
Метод сжатия : С потерями
Размер потока : 147 Мбайт (3%)
Заголовок : Профессиональный (многоголосый закадровый) ТНТ
Язык : Russian
Default : Да
Forced : Нет

Аудио #2
Идентификатор : 3
Формат : AC-3
Формат/Информация : Audio Coding 3
Коммерческое название : Dolby Digital
Режим смешивания : Header stripping
Идентификатор кодека : A_AC3
Продолжительность : 1 ч. 47 м.
Вид битрейта : Постоянный
Битрейт : 448 Кбит/сек
Каналы : 6 каналов
ChannelLayout : L R C LFE Ls Rs
Частота : 48,0 КГц
Частота кадров : 31,250 кадров/сек (1536 SPF)
Битовая глубина : 16 бит
Метод сжатия : С потерями
Размер потока : 344 Мбайт (7%)
Заголовок : Оригинал
Язык : English
Default : Нет
Forced : Нет



_________________
Проголосуй за трекер Открытый торрент трекер - RUS-MEDIA.ORG

Проголосуй Открытый торрент трекер - RUS-MEDIA.ORG


Вернуться к началу
 Профиль Отправить личное сообщение  
 
   Похожие торренты   Автор   Торрент   Размер 
В этой теме нет новых непрочитанных сообщений. Белый лотос / The White Lotus (Сезон 1 , Серия 1-6 из 6) (Майк Уайт) [2021,Драма, комедия,WEB-DLRip - HEVC - 1080p] [ LostFilm + Кравец-Рекордз +AlexFilm +HDRezka Studio+ NewStudio+TVShows+Ukr+Eng]+[Subs Rus , ENG]

Враг Нароода

2 | 0

17.21 ГБ

В этой теме нет новых непрочитанных сообщений. Якудза / The Yakuza (Сидни Поллак) [1974 г., Боевик, триллер, драма, криминал, BDRip 1080p] MVO, AVO, Eng

zorgi

0 | 0

14.73 ГБ

В этой теме нет новых непрочитанных сообщений. Белое зло / White Mischief [драма, мелодрама, криминал, 1987] DVDRip, Mvo

salma3

0 | 0

1.47 ГБ

В этой теме нет новых непрочитанных сообщений. Операция «Тушенка» / L'operation Corned-Beef [Боевик, комедия, мелодрама, 1991] BDRip 720p, Mvo

salma3

0 | 0

5.99 ГБ

В этой теме нет новых непрочитанных сообщений. Фландрия / Flandres [драма, мелодрама, военный, 2006] BDRip 720p, Mvo

salma3

0 | 0

6.95 ГБ

В этой теме нет новых непрочитанных сообщений. Пепел - самый чистый белый / Jiang hu er nu / Ash Is Purest White [драма, мелодрама, криминал, 2018] BDRip, Avo

salma3

0 | 0

2.18 ГБ

В этой теме нет новых непрочитанных сообщений. Белый шквал / White Squall [Драма, приключения, 1996] BDRip 1080p, Mvo

salma3

0 | 4

12.28 ГБ


Начать новую тему Ответить на тему  [ 1 сообщение ] 




Для Мосгорсуда, Роскомнадзора и рекламодателей:: rstracker[собака]yandex.ru
cron