Торрент файл
скачать торрент магнет ссылка Добавлен: 10 дек 2020, 22:25
Размер: 4.67 ГБ
Сидеров: 3
Личеров: 0
Автор

СообщениеДобавлено: 10 дек 2020, 22:25 

Не в сети
Дата регистрации:
25 июл 2019, 06:17
Спасибо: 55 / 2
Сообщения: 2969
Информация о фильме
Название: Кристофер Робин
Оригинальное название: Christopher Robin
Год выхода: 2018
Жанр: фэнтези, драма, комедия, приключения, семейный
Режиссер: Марк Форстер
В ролях: Эван МакГрегор, Хейли Этвелл, Бронте Кармайкл, Марк Гейтисс

Описание: В жизни повзрослевшего Кристофера Робина царит повседневная рутина. Однажды он встречает друга детства — медвежонка Винни. Вместе им предстоит вернуться в Стоакровый лес, чтобы не только отыскать потерявшихся друзей, но и вновь обрести счастье.

Выпущено: Великобритания, США / 2DUXВІ, Невафильм, Walt Disney Pictures
Продолжительность: 01:43:56
Перевод: Дублированный | Лицензия



Файл
Формат: MKV
Качество: BDRip 1080p
Видео: HEVC/H.265, 1920x804, 23.976fps, 5499 Kb/s
Аудио 1: 48KHz, AC3, 6ch, 640 Kb/s | Дублированный
Аудио 2: 48KHz, AC3, 6ch, 448 Kb/s | Английский
Субтитры: Русские, английские

Скриншоты:


Общее
Уникальный идентификатор : 279169923604958322475322452196626490729 (0xD2062BEA53EB5D7B728FD75CB6C36569)
Полное имя : F:РАЗДАЧИChristopher Robin (2018) BDRip 1080p [HEVC] 10bit.mkv
Формат : Matroska
Версия формата : Version 4 / Version 2
Размер файла : 4,78 Гбайт
Продолжительность : 1 ч. 43 м.
Общий поток : 6589 Кбит/сек
Название фильма : Кристофер Робин
Дата кодирования : UTC 2018-12-02 08:57:52
Программа кодирования : mkvmerge v25.0.0 ('Prog Noir') 64-bit
Библиотека кодирования : libebml v1.3.6 + libmatroska v1.4.9 / Lavf57.71.100
Attachments : poster.jpg
ACTORS : Юэн МакГрегор, Хейли Этвелл,
COUNTRY : США
DATE : 2018
DIRECTOR : Марк Форстер
ENCODING_INFO : MPEGTS > MKV 1080p 10-bit / H264 > X265 CRF 18.0 Medium / AC3 > AC3 CBR 384kbps / DTS-HD MA > AC3 CBR 448kbps
GENRE : мультфильм, фэнтези, драма
HD_VIDEO : 1
Язык : und
MEDIA_TYPE : 9
ORIGINAL_TITLE : Christopher Robin

Видео
Идентификатор : 1
Формат : HEVC
Формат/Информация : High Efficiency Video Coding
Идентификатор кодека : V_MPEGH/ISO/HEVC
Продолжительность : 1 ч. 43 м.
Битрейт : 5499 Кбит/сек
Ширина : 1920 пикселей
Высота : 804 пикселя
Соотношение сторон : 2,40:1
Режим частоты кадров : Постоянный
Частота кадров : 23,976 (24000/1001) кадра/сек
Цветовое пространство : YUV
Субдискретизация насыщенности : 4:2:0
Битовая глубина : 10 бит
Бит/(Пиксели*Кадры) : 0.149
Размер потока : 3,99 Гбайт (83%)
Библиотека кодирования : x265 2.8+74-fd517ae68f93:[Windows][GCC 7.3.0][64 bit] 10bit
Настройки программы : cpuid=1111039 / frame-threads=13 / numa-pools=12 / wpp / no-pmode / no-pme / no-psnr / no-ssim / log-level=3 / input-csp=1 / input-res=1920x804 / interlace=0 / total-frames=0 / level-idc=41 / high-tier=1 / uhd-bd=0 / ref=7 / allow-non-conformance / no-repeat-headers / annexb / no-aud / no-hrd / info / hash=0 / no-temporal-layers / no-open-gop / min-keyint=24 / keyint=240 / gop-lookahead=0 / bframes=9 / b-adapt=2 / b-pyramid / bframe-bias=0 / rc-lookahead=40 / lookahead-slices=5 / scenecut=40 / radl=0 / no-intra-refresh / ctu=64 / min-cu-size=8 / rect / amp / max-tu-size=32 / tu-inter-depth=1 / tu-intra-depth=1 / limit-tu=0 / rdoq-level=0 / dynamic-rd=0.00 / no-ssim-rd / signhide / no-tskip / nr-intra=0 / nr-inter=0 / no-constrained-intra / no-strong-intra-smoothing / max-merge=2 / limit-refs=3 / no-limit-modes / me=3 / subme=7 / merange=57 / temporal-mvp / weightp / no-weightb / no-analyze-src-pics / deblock=-2:-2 / no-sao / no-sao-non-deblock / rd=3 / no-early-skip / rskip / no-fast-intra / no-tskip-fast / no-cu-lossless / no-b-intra / no-splitrd-skip / rdpenalty=0 / psy-rd=2.00 / psy-rdoq=0.00 / no-rd-refine / no-lossless / cbqpoffs=0 / crqpoffs=0 / rc=crf / crf=18.0 / qcomp=0.60 / qpstep=4 / stats-write=0 / stats-read=0 / vbv-maxrate=50000 / vbv-bufsize=50000 / vbv-init=0.9 / crf-max=0.0 / crf-min=0.0 / ipratio=1.40 / pbratio=1.30 / aq-mode=1 / aq-strength=1.00 / cutree / zone-count=0 / no-strict-cbr / qg-size=32 / no-rc-grain / qpmax=69 / qpmin=0 / no-const-vbv / sar=1 / overscan=0 / videoformat=5 / range=0 / colorprim=1 / transfer=1 / colormatrix=1 / chromaloc=0 / display-window=0 / max-cll=0,0 / min-luma=0 / max-luma=1023 / log2-max-poc-lsb=8 / vui-timing-info / vui-hrd-info / slices=1 / no-opt-qp-pps / no-opt-ref-list-length-pps / no-multi-pass-opt-rps / scenecut-bias=0.05 / no-opt-cu-delta-qp / no-aq-motion / no-hdr / no-hdr-opt / no-dhdr10-opt / no-idr-recovery-sei / analysis-reuse-level=5 / scale-factor=0 / refine-intra=0 / refine-inter=0 / refine-mv=0 / no-limit-sao / ctu-info=0 / no-lowpass-dct / refine-mv-type=0 / copy-pic=1 / max-ausize-factor=1.0 / no-dynamic-refine / no-single-sei
Default : Да
Forced : Нет
Цветовой диапазон : Limited
Основные цвета : BT.709
Характеристики трансфера : BT.709
Коэффициенты матрицы : BT.709

Аудио #1
Идентификатор : 2
Формат : AC-3
Формат/Информация : Audio Coding 3
Идентификатор кодека : A_AC3
Продолжительность : 1 ч. 43 м.
Вид битрейта : Постоянный
Битрейт : 640 Кбит/сек
Каналы : 6 каналов
Расположение каналов : Front: L C R, Side: L R, LFE
Частота : 48,0 КГц
Частота кадров : 31,250 кадров/сек (1536 SPF)
Битовая глубина : 16 бит
Метод сжатия : С потерями
Размер потока : 476 Мбайт (10%)
Заголовок : Dub [License]
Язык : Russian
ServiceKind/ : Complete Main
Default : Да
Forced : Да

Аудио #2
Идентификатор : 3
Формат : AC-3
Формат/Информация : Audio Coding 3
Идентификатор кодека : A_AC3
Продолжительность : 1 ч. 43 м.
Вид битрейта : Постоянный
Битрейт : 448 Кбит/сек
Каналы : 6 каналов
Расположение каналов : Front: L C R, Side: L R, LFE
Частота : 48,0 КГц
Частота кадров : 31,250 кадров/сек (1536 SPF)
Битовая глубина : 16 бит
Метод сжатия : С потерями
Размер потока : 333 Мбайт (7%)
Язык : English
ServiceKind/ : Complete Main
Default : Нет
Forced : Нет

Текст
Идентификатор : 4
Формат : UTF-8
Идентификатор кодека : S_TEXT/UTF8
Идентификатор кодека/Информация : UTF-8 Plain Text
Продолжительность : 50 м. 28 с.
Битрейт : 0 бит/сек
ElementCount : 2
Размер потока : 48,0 байт (0%)
Заголовок : Forced
Язык : Russian
Default : Да
Forced : Да

Меню
00:00:00.000 : :Глава 1
00:14:02.007 : :Глава 2
00:28:16.277 : :Глава 3
00:42:17.243 : :Глава 4
00:56:43.274 : :Глава 5
01:10:44.949 : :Глава 6
01:25:22.158 : :Глава 7
01:37:49.363 : :Глава 8



Вернуться к началу
 Профиль Отправить личное сообщение  
 
   Похожие торренты   Автор   Торрент   Размер 
В этой теме нет новых непрочитанных сообщений. Кристофер Робин / Christopher Robin [фэнтези, драма, комедия, приключения, семейный, 2018] DVD9, Dub | [Лицензия]

NTL

0 | 0

6.23 ГБ

В этой теме нет новых непрочитанных сообщений. Хороший динозавр / The Good Dinosaur [мультфильм, фэнтези, драма, комедия, приключения, семейный, 2015] BDRip-HEVC 1080p, Dub [Лицензия]

K15

10 | 3

6.33 ГБ

В этой теме нет новых непрочитанных сообщений. Фантастические твари и где они обитают / Fantastic Beasts and Where to Find Them [Фэнтези, приключения, семейный, 2016] BDRip-HEVC 1080p, Dub [Лицензия]

salma3

0 | 0

5.42 ГБ

В этой теме нет новых непрочитанных сообщений. Ученик чародея / The Sorcerer's Apprentice [фэнтези, боевик, семейный, 2010] BDRip-HEVC 1080p, Dub [Лицензия]

NTL

0 | 0

7.65 ГБ

В этой теме нет новых непрочитанных сообщений. ВАЛЛ·И / WALL·E (Эндрю Стэнтон) [2008 г., мультфильм, фантастика, приключения, семейный, BDRip-HEVC 1080p] | Dub | Лицензия | Локализованная версия

zorgi

0 | 1

4.57 ГБ

В этой теме нет новых непрочитанных сообщений. Шазам! / Shazam! [Фэнтези, боевик, комедия, 2019] BDRip-HEVC 1080p, Dub [Лицензия]

salma3

0 | 0

11 ГБ

В этой теме нет новых непрочитанных сообщений. Бамблби / Bumblebee [Фантастика, боевик, приключения, 2018] BDRip-HEVC 1080p, Dub [Лицензия]

salma3

0 | 0

8.81 ГБ


Начать новую тему Ответить на тему  [ 1 сообщение ] 




Для Мосгорсуда, Роскомнадзора и рекламодателей:: rstracker[собака]yandex.ru
cron