COVID-19 - Последняя информация о коронавирусе на сайте Минздрава




Торрент файл
скачать торрент магнет ссылка Добавлен: 25 июл 2020, 15:12
Размер: 16.31 ГБ
Сидеров: 0
Личеров: 0
Автор

СообщениеДобавлено: 25 июл 2020, 15:12 

Не в сети
Дата регистрации:
25 июл 2019, 06:17
Спасибо: 30 / 2
Сообщения: 917
Информация о фильме
Название: Чёрная Пантера
Оригинальное название: Black Panther
Год выхода: 2018
Жанр: Фантастика, боевик, приключения
Режиссер: Райан Куглер
В ролях: Чэдвик Боузмэн, Майкл Б. Джордан, Лупита Нионго, Данай Джекесай Гурира, Мартин Фриман, Дэниэл Калуя, Летишиа Райт, Уинстон Дьюк, Стерлинг К. Браун, Анджела Бассетт

Описание: С первого взгляда можно решить, что Ваканда - обычная территория дикой Африки, но это не так. Здесь, в недрах пустынных земель, скрываются залежи уникального металла, способного поглощать вибрацию. Многие пытались добраться до него, разоряя всё на своём пути и принося смерть аборигенам, но каждый раз таинственный дух саванны - Чёрная Пантера - вставал на защиту угнетённых.

Спустя много лет беда снова приходит в Ваканду, и в этот раз враг заручился поддержкой современных технологий. Когда шансов почти не остаётся, Т'Чалла, молодой принц Ваканды, узнаёт, что именно ему предстоит возродить легенду и продолжить вечную борьбу, надев маску Чёрной Пантеры.

Выпущено: США / Marvel Studios Inc., Walt Disney Pictures
Продолжительность: 02:14:34
Перевод: Дублированный | Лицензия BD EUR



Файл
Формат: MKV
Качество: UHD BDRip 2160p (HDR)
Видео: H.265/HEVC, 3840x1608, 23.976fps, 15.9 Mb/s
Звук 1: 48KHz, AC3, 6ch, 640 Kb/s | Русский
Звук 2: 48KHz, AC3, 2ch, 192 Kb/s | Украинский
Звук 3: 48KHz, AC3, 6ch, 640 Kb/s | Английский
Субтитры: Русские (forced, full), украинские (forced), английские (forced, full, SDH)

Скриншоты:


x265 log
x265 [info]: frame I: 2068, Avg QP:15.22 kb/s: 40555.71
x265 [info]: frame P: 40865, Avg QP:16.91 kb/s: 26469.74
x265 [info]: frame B: 150659, Avg QP:19.77 kb/s: 12660.32
x265 [info]: consecutive B-frames: 15.6% 12.2% 6.7% 25.6% 6.4% 11.6% 3.6% 10.8% 2.8% 2.2% 2.6%

Format : Matroska
Format version : Version 4
File size : 16.3 GiB
Duration : 2 h 14 min
Overall bit rate : 17.4 Mb/s
Movie name : Black Panther (2018) UHD-BDRip HDR BT2020 x265 2160p -BLUEBIRD
Encoded date : UTC 2019-03-03 08:14:01
Writing application : mkvmerge v31.0.0 ('Dolores In A Shoestand') 64-bit
Writing library : libebml v1.3.6 + libmatroska v1.4.9
Attachments : Log.txt

Video
ID : 1
Format : HEVC
Format/Info : High Efficiency Video Coding
Commercial name : HDR10
Format profile : Main 10@L5.1@High
Codec ID : V_MPEGH/ISO/HEVC
Duration : 2 h 14 min
Bit rate : 15.9 Mb/s
Width : 3 840 pixels
Height : 1 608 pixels
Display aspect ratio : 2.40:1
Frame rate mode : Constant
Frame rate : 23.976 (24000/1001) FPS
Color space : YUV
Chroma subsampling : 4:2:0 (Type 2)
Bit depth : 10 bits
Bits/(Pixel*Frame) : 0.107
Stream size : 14.9 GiB (92%)
Title : BLACK_PANTER_2018_UHD-BDRip_HDR_BT2020_x265_2160p -BLUEBIRD
Writing library : x265 2.9+35-bad4e598cac7:[Windows][GCC 6.3.0][64 bit] 10bit
Encoding settings : cpuid=1111039 / frame-threads=4 / numa-pools=24 / wpp / no-pmode / pme / no-psnr / no-ssim / log-level=2 / input-csp=1 / input-res=3840x1608 / interlace=0 / total-frames=193592 / level-idc=51 / high-tier=1 / uhd-bd=0 / ref=4 / no-allow-non-conformance / repeat-headers / annexb / aud / no-hrd / info / hash=0 / no-temporal-layers / no-open-gop / min-keyint=23 / keyint=250 / gop-lookahead=0 / bframes=10 / b-adapt=2 / b-pyramid / bframe-bias=0 / rc-lookahead=72 / lookahead-slices=4 / scenecut=40 / radl=0 / no-splice / no-intra-refresh / ctu=64 / min-cu-size=8 / no-rect / no-amp / max-tu-size=32 / tu-inter-depth=2 / tu-intra-depth=2 / limit-tu=0 / rdoq-level=2 / dynamic-rd=0.00 / no-ssim-rd / signhide / no-tskip / nr-intra=0 / nr-inter=0 / constrained-intra / strong-intra-smoothing / max-merge=5 / limit-refs=3 / no-limit-modes / me=3 / subme=7 / merange=48 / temporal-mvp / weightp / weightb / no-analyze-src-pics / deblock=0:0 / sao / no-sao-non-deblock / rd=4 / no-early-skip / no-rskip / no-fast-intra / no-tskip-fast / no-cu-lossless / b-intra / no-splitrd-skip / rdpenalty=0 / psy-rd=2.15 / psy-rdoq=1.03 / no-rd-refine / no-lossless / cbqpoffs=-2 / crqpoffs=-2 / rc=crf / crf=16.4 / qcomp=0.62 / qpstep=2 / stats-write=0 / stats-read=0 / vbv-maxrate=160000 / vbv-bufsize=160000 / vbv-init=0.9 / crf-max=0.0 / crf-min=0.0 / ipratio=1.30 / pbratio=1.15 / aq-mode=1 / aq-strength=1.00 / cutree / zone-count=1 / zones: / start-frame=182303 / end-frame=191795 / qp=23 / no-strict-cbr / qg-size=32 / no-rc-grain / qpmax=69 / qpmin=0 / no-const-vbv / sar=1 / overscan=0 / videoformat=5 / range=0 / colorprim=9 / transfer=16 / colormatrix=9 / chromaloc=1 / chromaloc-top=2 / chromaloc-bottom=2 / display-window=0 / master-display=G(13250,34500)B(7500,3000)R(34000,16000)WP(15635,16450)L(10000000,1) / max-cll=0,0 / min-luma=0 / max-luma=1023 / log2-max-poc-lsb=8 / vui-timing-info / vui-hrd-info / slices=1 / no-opt-qp-pps / no-opt-ref-list-length-pps / no-multi-pass-opt-rps / scenecut-bias=0.05 / no-opt-cu-delta-qp / no-aq-motion / hdr / hdr-opt / no-dhdr10-opt / no-idr-recovery-sei / analysis-reuse-level=5 / scale-factor=0 / refine-intra=0 / refine-inter=0 / refine-mv=0 / refine-ctu-distortion=0 / no-limit-sao / ctu-info=0 / no-lowpass-dct / refine-analysis-type=0 / copy-pic=1 / max-ausize-factor=1.0 / no-dynamic-refine / no-single-sei / no-hevc-aq / qp-adaptation-range=1.00
Language : English
Default : Yes
Forced : No
Color range : Limited
Color primaries : BT.2020
Transfer characteristics : PQ
Matrix coefficients : BT.2020 non-constant
Mastering display color pri : Display P3
Mastering display luminance : min: 0.0001 cd/m2, max: 1000 cd/m2

Audio #1
ID : 2
Format : AC-3
Format/Info : Audio Coding 3
Commercial name : Dolby Digital
Codec ID : A_AC3
Duration : 2 h 14 min
Bit rate mode : Constant
Bit rate : 640 kb/s
Channel(s) : 6 channels
Channel layout : L R C LFE Ls Rs
Sampling rate : 48.0 kHz
Frame rate : 31.250 FPS (1536 SPF)
Bit depth : 16 bits
Compression mode : Lossy
Stream size : 616 MiB (4%)
Title : Dub
Language : Russian
Service kind : Complete Main
Default : Yes
Forced : No

Audio #2
ID : 3
Format : AC-3
Format/Info : Audio Coding 3
Commercial name : Dolby Digital
Codec ID : A_AC3
Duration : 2 h 14 min
Bit rate mode : Constant
Bit rate : 192 kb/s
Channel(s) : 2 channels
Channel layout : L R
Sampling rate : 48.0 kHz
Frame rate : 31.250 FPS (1536 SPF)
Bit depth : 16 bits
Compression mode : Lossy
Stream size : 185 MiB (1%)
Title : Dub
Language : Ukrainian
Service kind : Complete Main
Default : No
Forced : No

Audio #3
ID : 4
Format : AC-3
Format/Info : Audio Coding 3
Commercial name : Dolby Digital
Codec ID : A_AC3
Duration : 2 h 14 min
Bit rate mode : Constant
Bit rate : 640 kb/s
Channel(s) : 6 channels
Channel layout : L R C LFE Ls Rs
Sampling rate : 48.0 kHz
Frame rate : 31.250 FPS (1536 SPF)
Bit depth : 16 bits
Compression mode : Lossy
Stream size : 616 MiB (4%)
Language : English
Service kind : Complete Main
Default : No
Forced : No

Text #1
ID : 5
Format : UTF-8
Codec ID : S_TEXT/UTF8
Codec ID/Info : UTF-8 Plain Text
Duration : 2 h 12 min
Bit rate : 2 b/s
Count of elements : 78
Stream size : 2.22 KiB (0%)
Title : forced
Language : Russian
Default : Yes
Forced : Yes

Text #2
ID : 6
Format : UTF-8
Codec ID : S_TEXT/UTF8
Codec ID/Info : UTF-8 Plain Text
Duration : 2 h 14 min
Bit rate : 64 b/s
Count of elements : 1461
Stream size : 63.8 KiB (0%)
Title : full
Language : Russian
Default : No
Forced : No

Text #3
ID : 7
Format : UTF-8
Codec ID : S_TEXT/UTF8
Codec ID/Info : UTF-8 Plain Text
Duration : 2 h 10 min
Bit rate : 2 b/s
Count of elements : 77
Stream size : 2.34 KiB (0%)
Title : forced
Language : Ukrainian
Default : No
Forced : No

Text #4
ID : 8
Format : UTF-8
Codec ID : S_TEXT/UTF8
Codec ID/Info : UTF-8 Plain Text
Duration : 2 h 10 min
Bit rate : 1 b/s
Count of elements : 61
Stream size : 1.03 KiB (0%)
Title : forced
Language : English
Default : No
Forced : No

Text #5
ID : 9
Format : UTF-8
Codec ID : S_TEXT/UTF8
Codec ID/Info : UTF-8 Plain Text
Duration : 2 h 14 min
Bit rate : 41 b/s
Count of elements : 1581
Stream size : 40.4 KiB (0%)
Title : full
Language : English
Default : No
Forced : No

Text #6
ID : 10
Format : UTF-8
Codec ID : S_TEXT/UTF8
Codec ID/Info : UTF-8 Plain Text
Duration : 2 h 14 min
Bit rate : 47 b/s
Count of elements : 1835
Stream size : 47.1 KiB (0%)
Title : SDH
Language : English
Default : No
Forced : No

Menu
00:00:00.000 : :CHAPTER01
00:06:56.291 : :CHAPTER02
00:12:02.805 : :CHAPTER03
00:19:12.360 : :CHAPTER04
00:28:32.961 : :CHAPTER05
00:33:11.698 : :CHAPTER06
00:40:57.497 : :CHAPTER07
00:48:33.953 : :CHAPTER08
00:53:46.098 : :CHAPTER09
01:01:57.339 : :CHAPTER10
01:08:33.026 : :CHAPTER11
01:16:46.769 : :CHAPTER12
01:22:24.022 : :CHAPTER13
01:31:21.351 : :CHAPTER14
01:41:15.278 : :CHAPTER15
01:50:56.483 : :CHAPTER16
01:59:16.941 : :CHAPTER17
02:02:43.898 : :CHAPTER18



Скачать книги и аудио книги через торрент


Вернуться к началу
 Профиль Отправить личное сообщение  
 
   Похожие торренты   Автор   Торрент   Размер 
В этой теме нет новых непрочитанных сообщений. Чёрная Пантера / Black Panther [фантастика, боевик, приключения, 2018] BDRip-HEVC 720p, Dub

salma3

0 | 0

2.75 ГБ

В этой теме нет новых непрочитанных сообщений. Чёрная Пантера / Black Panther [фантастика, боевик, приключения, 2018] BDRip-HEVC 1080p, Dub [iTunes]

salma3

2106 | 498

6.01 ГБ

В этой теме нет новых непрочитанных сообщений. Чёрная Пантера / Black Panther [Фантастика, боевик, приключения, 2018] BDRip-HEVC 1080p, Dub [Лицензия]

salma3

167 | 35

6.25 ГБ

В этой теме нет новых непрочитанных сообщений. Чёрная Пантера / Black Panther [Фантастика, боевик, приключения, 2018] BDRemux 2160p, Dub [Лицензия] [4K]

salma3

0 | 0

47.35 ГБ

В этой теме нет новых непрочитанных сообщений. Чёрная Пантера / Black Panther [фантастика, боевик, приключения, 2018] BDRemux 2160p, Dub [iTunes]

salma3

211 | 490

46.93 ГБ

В этой теме нет новых непрочитанных сообщений. Чёрная Пантера / Black Panther [Фантастика, боевик, приключения, 2018] BDRip, Dub [Лицензия]

salma3

0 | 0

1.46 ГБ

В этой теме нет новых непрочитанных сообщений. Чёрная Пантера / Black Panther [фантастика, боевик, приключения, 2018] BDRip, Dub [iTunes]

salma3

1301 | 544

2.12 ГБ


Начать новую тему Ответить на тему  [ 1 сообщение ] 




Для Мосгорсуда, Роскомнадзора и рекламодателей:: rstracker[собака]yandex.ru
cron