Торрент файл
скачать торрент магнет ссылка Добавлен: 18 июн 2020, 21:11
Размер: 4.51 ГБ
Сидеров: 0
Личеров: 0
Статус: (salma3)
Автор

СообщениеДобавлено: 18 июн 2020, 21:11 

Не в сети
Супермодератор
Аватара пользователя
Дата регистрации:
15 фев 2012, 16:44
Возраст: 33
Спасибо: 8325 / 2148
Сообщения: 97229
Год выхода: 2020
Жанр: детектив, приключения
Режиссер: Тони Тилс

В ролях: Эсси Дэвис, Эшли Каммингс, Жаклин Маккензи, Мириам Марголис, Хьюго Джонстон-Барт, Руперт Пенри-Джонс, Нэйтан Пейдж, Дэниэл Лапэйн, Энтони Шарп, Джон Уотерс и др.

О фильме:
После освобождения молодой девушки из несправедливого заточения в Иерусалиме Фрайни Фишер начинает распутывать тайну, касающуюся бесценных изумрудов, древних проклятий и мистического исчезновения целого племени Ширин.



Производство: Австралия / Every Cloud Productions
Продолжительность: 01:41:12
Перевод: Профессиональный (многоголосый, закадровый) [ViruseProject]

Файл
Кодек: AVC/H.264
Качество: WEBRip-AVC
Видео: 1920 x 960 (16:9), ~ 6000 Kbps, 23.976 FPS
Звук:
Аудио 1: AC3, 2 ch, 192 kbps - русский, многоголосый закадровый
Аудио 2: AC3, 2 ch, 192 kbps - английский
Субтитры: русские

Семпл

General
Unique ID : 236492790147326229269840025348499446812 (0xB1EADAC838C7F037B66B2FCF5AD61C1C)
Complete name : Miss Fisher & the Crypt of Tears.2020.mkv
Format : Matroska
Format version : Version 4
File size : 4.51 GiB
Duration : 1 h 41 min
Overall bit rate : 6 385 kb/s
Encoded date : UTC 2020-06-18 13:36:20
Writing application : mkvmerge v8.3.0 ('Over the Horizon') 32bit
Writing library : libebml v1.3.1 + libmatroska v1.4.2

Video
ID : 1
Format : AVC
Format/Info : Advanced Video Codec
Format profile : High@L4.1
Format settings : CABAC / 4 Ref Frames
Format settings, CABAC : Yes
Format settings, Reference : 4 frames
Codec ID : V_MPEG4/ISO/AVC
Duration : 1 h 41 min
Bit rate : 6 000 kb/s
Width : 1 920 pixels
Height : 960 pixels
Display aspect ratio : 2.000
Frame rate mode : Constant
Frame rate : 23.976 (23976/1000) FPS
Color space : YUV
Chroma subsampling : 4:2:0
Bit depth : 8 bits
Scan type : Progressive
Bits/(Pixel*Frame) : 0.136
Stream size : 4.24 GiB (94%)
Writing library : x264 core 142 r2479 dd79a61
Encoding settings : cabac=1 / ref=2 / deblock=1:-1:-1 / analyse=0x3:0x113 / me=hex / subme=6 / psy=1 / psy_rd=1.00:0.15 / mixed_ref=1 / me_range=16 / chroma_me=1 / trellis=1 / 8x8dct=1 / cqm=0 / deadzone=21,11 / fast_pskip=1 / chroma_qp_offset=-3 / threads=12 / lookahead_threads=2 / sliced_threads=0 / nr=0 / decimate=1 / interlaced=0 / bluray_compat=0 / constrained_intra=0 / bframes=3 / b_pyramid=2 / b_adapt=1 / b_bias=0 / direct=1 / weightb=1 / open_gop=0 / weightp=1 / keyint=240 / keyint_min=24 / scenecut=40 / intra_refresh=0 / rc_lookahead=30 / rc=2pass / mbtree=1 / bitrate=6000 / ratetol=1.0 / qcomp=0.60 / qpmin=0 / qpmax=69 / qpstep=4 / cplxblur=20.0 / qblur=0.5 / vbv_maxrate=62500 / vbv_bufsize=78125 / nal_hrd=none / filler=0 / ip_ratio=1.40 / aq=1:1.00
Default : Yes
Forced : No
Color range : Limited
Color primaries : BT.709
Transfer characteristics : BT.709
Matrix coefficients : BT.709

Audio #1
ID : 2
Format : AC-3
Format/Info : Audio Coding 3
Commercial name : Dolby Digital
Codec ID : A_AC3
Duration : 1 h 41 min
Bit rate mode : Constant
Bit rate : 192 kb/s
Channel(s) : 2 channels
Channel layout : L R
Sampling rate : 48.0 kHz
Frame rate : 31.250 FPS (1536 SPF)
Compression mode : Lossy
Stream size : 139 MiB (3%)
Language : Russian
Service kind : Complete Main
Default : Yes
Forced : No

Audio #2
ID : 3
Format : AC-3
Format/Info : Audio Coding 3
Commercial name : Dolby Digital
Codec ID : A_AC3
Duration : 1 h 41 min
Bit rate mode : Constant
Bit rate : 192 kb/s
Channel(s) : 2 channels
Channel layout : L R
Sampling rate : 48.0 kHz
Frame rate : 31.250 FPS (1536 SPF)
Compression mode : Lossy
Stream size : 139 MiB (3%)
Language : English
Service kind : Complete Main
Default : No
Forced : No

Text
ID : 4
Format : UTF-8
Codec ID : S_TEXT/UTF8
Codec ID/Info : UTF-8 Plain Text
Duration : 1 h 35 min
Bit rate : 79 b/s
Count of elements : 1072
Stream size : 55.2 KiB (0%)
Language : Russian
Default : No
Forced : No




_________________
Проголосуй за трекер Открытый торрент трекер - RUS-MEDIA.ORG

Проголосуй Открытый торрент трекер - RUS-MEDIA.ORG


Вернуться к началу
 Профиль Отправить личное сообщение  
 
   Похожие торренты   Автор   Торрент   Размер 
В этой теме нет новых непрочитанных сообщений. Удивительное путешествие доктора Дулиттла / Dolittle [Фэнтези, комедия, приключения, 2020] WEBRip 1080p, Mvo

salma3

0 | 0

3.81 ГБ

В этой теме нет новых непрочитанных сообщений. Мисс униформа / Miss Uniform (2008) DVDRip | Rus

zorgi

2 | 1

1.59 ГБ

В этой теме нет новых непрочитанных сообщений. Мисс униформа / Miss Uniform (2008) DVDRip | Rus

zorgi

16 | 1

2.05 ГБ

В этой теме нет новых непрочитанных сообщений. Мисс Плохое поведение / Misbehaviour [комедия, драма, история, 2020] WEB-DLRip, Mvo

salma3

0 | 0

1.46 ГБ

В этой теме нет новых непрочитанных сообщений. Christina Bella - Мисс униформа / Miss Uniform (2008) DVDRip | Rus

zorgi

26 | 6

270.63 МБ

В этой теме нет новых непрочитанных сообщений. Последний богатырь: Корень зла [Приключения, семейный, фэнтези, 2020] WEBRip 1080p

salma3

32 | 0

5.68 ГБ

В этой теме нет новых непрочитанных сообщений. Чёрный список / The Blacklist [08x01-14] [триллер, криминал, детектив, 2020] WEBRip, Mvo [TVShows]

salma3

0 | 0

7.15 ГБ


Начать новую тему Ответить на тему  [ 1 сообщение ] 




Для Мосгорсуда, Роскомнадзора и рекламодателей:: rstracker[собака]yandex.ru
cron