Торрент файл
скачать торрент магнет ссылка Добавлен: 04 апр 2020, 11:23
Размер: 3.19 ГБ
Сидеров: 0
Личеров: 0
Статус: (salma3)
Автор

СообщениеДобавлено: 04 апр 2020, 11:23 

Не в сети
Супермодератор
Аватара пользователя
Дата регистрации:
15 фев 2012, 16:44
Возраст: 33
Спасибо: 8325 / 2148
Сообщения: 97229
Год выхода: 2001
Жанр: фэнтези, комедия, приключения
Режиссер: Джил Джангер

В ролях: Мартин Лоуренс, Марша Томасон, Том Уилкинсон, Винсент Риган, Кевин Конуэй, Эрик Дженсен, Хелен Кэри, Майкл Бургесс, Изабелл Монк, Марк Джеффри Миллер, Зэк Ханнер, Ричард Фуллертон, Грег Купер


Был обычный летний день. Джамал, как обычно, чистил ров в городском парке развлечений «Средневековый мир». Но судьба уже готовила ему самое весёлое и безумное приключение в его жизни. Случайно перевернувшись через перила моста, Джамал падает в воду и выныривает в Средневековой Англии. Принятый за посла из Нормандии из-за странной одежды и манеры говорить он знакомится с очаровательной заговорщицей, которая хочет свергнуть короля-тирана.



Страна: США
Продолжительность: 01:35:36
Перевод: Профессиональный (многоголосый закадровый)

Файл
Кодек: H.264
Качество: WEB-DLRip 720p
Видео: 1280x720 (16:9), 2783 kbps, 23.976 fps
Звук: Русский (AC-3, 6ch, 384 kbps)
Русский (AC-3, 6ch, 384 kbps) R5
Русский (AC-3, 2ch, 192 kbps) Лазер видео
Русский (AC-3, 2ch, 192 kbps) Россия
Русский (AC-3, 2ch, 192 kbps) Первый канал
Оригинал (AC-3, 6ch, 640 kbps)
Субтитры: русские, английские


General
Unique ID : 48750216142051693233277590841966101133 (0x24ACF33A2B2AD135C77D229F2C6E828D)
Complete name : F:ФИЛЬМЫРУТОРЧёрный рыцарь (Open Matte) WEB-DLRip 720p.mkv
Format : Matroska
Format version : Version 4
File size : 3.19 GiB
Duration : 1 h 35 min
Overall bit rate : 4 770 kb/s
Movie name : Чёрный рыцарь / Black Knight (2001) (Open Matte) - #LORDKILL#
Encoded date : UTC 2020-04-04 03:13:46
Writing application : mkvmerge v32.0.0 ('Astral Progressions') 64-bit
Writing library : libebml v1.3.7 + libmatroska v1.5.0

Video
ID : 1
Format : AVC
Format/Info : Advanced Video Codec
Format profile : High@L4.1
Format settings : CABAC / 9 Ref Frames
Format settings, CABAC : Yes
Format settings, Reference : 9 frames
Codec ID : V_MPEG4/ISO/AVC
Duration : 1 h 35 min
Bit rate : 2 783 kb/s
Width : 1 280 pixels
Height : 720 pixels
Display aspect ratio : 16:9
Frame rate mode : Constant
Frame rate : 23.976 (24000/1001) FPS
Color space : YUV
Chroma subsampling : 4:2:0
Bit depth : 8 bits
Scan type : Progressive
Bits/(Pixel*Frame) : 0.126
Stream size : 1.86 GiB (58%)
Writing library : x264 core 148 r2638 7599210
Encoding settings : cabac=1 / ref=9 / deblock=1:-1:-1 / analyse=0x3:0x113 / me=umh / subme=10 / psy=1 / psy_rd=1.00:0.20 / mixed_ref=1 / me_range=32 / chroma_me=1 / trellis=2 / 8x8dct=1 / cqm=0 / deadzone=21,11 / fast_pskip=0 / chroma_qp_offset=-3 / threads=12 / lookahead_threads=2 / sliced_threads=0 / nr=0 / decimate=1 / interlaced=0 / bluray_compat=0 / constrained_intra=0 / bframes=8 / b_pyramid=2 / b_adapt=2 / b_bias=0 / direct=1 / weightb=1 / open_gop=0 / weightp=2 / keyint=240 / keyint_min=23 / scenecut=40 / intra_refresh=0 / rc=crf / mbtree=0 / crf=19.5 / qcomp=0.60 / qpmin=0 / qpmax=69 / qpstep=4 / ip_ratio=1.40 / pb_ratio=1.30 / aq=1:1.00
Default : Yes
Forced : No

Audio #1
ID : 2
Format : AC-3
Format/Info : Audio Coding 3
Commercial name : Dolby Digital
Codec ID : A_AC3
Duration : 1 h 35 min
Bit rate mode : Constant
Bit rate : 384 kb/s
Channel(s) : 6 channels
Channel layout : L R C LFE Ls Rs
Sampling rate : 48.0 kHz
Frame rate : 31.250 FPS (1536 SPF)
Compression mode : Lossy
Stream size : 263 MiB (8%)
Title : Многоголосый закадровый
Language : Russian
Service kind : Complete Main
Default : Yes
Forced : No

Audio #2
ID : 3
Format : AC-3
Format/Info : Audio Coding 3
Commercial name : Dolby Digital
Codec ID : A_AC3
Duration : 1 h 35 min
Bit rate mode : Constant
Bit rate : 384 kb/s
Channel(s) : 6 channels
Channel layout : L R C LFE Ls Rs
Sampling rate : 48.0 kHz
Frame rate : 31.250 FPS (1536 SPF)
Compression mode : Lossy
Stream size : 263 MiB (8%)
Title : Многоголосый закадровый (R5)
Language : Russian
Service kind : Complete Main
Default : No
Forced : No

Audio #3
ID : 4
Format : AC-3
Format/Info : Audio Coding 3
Commercial name : Dolby Digital
Codec ID : A_AC3
Duration : 1 h 35 min
Bit rate mode : Constant
Bit rate : 192 kb/s
Channel(s) : 2 channels
Channel layout : L R
Sampling rate : 48.0 kHz
Frame rate : 31.250 FPS (1536 SPF)
Compression mode : Lossy
Stream size : 131 MiB (4%)
Title : Многоголосый закадровый (Лазер видео)
Language : Russian
Service kind : Complete Main
Default : No
Forced : No

Audio #4
ID : 5
Format : AC-3
Format/Info : Audio Coding 3
Commercial name : Dolby Digital
Codec ID : A_AC3
Duration : 1 h 35 min
Bit rate mode : Constant
Bit rate : 192 kb/s
Channel(s) : 2 channels
Channel layout : L R
Sampling rate : 48.0 kHz
Frame rate : 31.250 FPS (1536 SPF)
Compression mode : Lossy
Stream size : 131 MiB (4%)
Title : Многоголосый закадровый (Россия)
Language : Russian
Service kind : Complete Main
Default : No
Forced : No

Audio #5
ID : 6
Format : AC-3
Format/Info : Audio Coding 3
Commercial name : Dolby Digital
Codec ID : A_AC3
Duration : 1 h 35 min
Bit rate mode : Constant
Bit rate : 192 kb/s
Channel(s) : 2 channels
Channel layout : L R
Sampling rate : 48.0 kHz
Frame rate : 31.250 FPS (1536 SPF)
Compression mode : Lossy
Stream size : 131 MiB (4%)
Title : Многоголосый закадровый (Первый канал)
Language : Russian
Service kind : Complete Main
Default : No
Forced : No

Audio #6
ID : 7
Format : E-AC-3
Format/Info : Enhanced AC-3
Commercial name : Dolby Digital Plus
Codec ID : A_EAC3
Duration : 1 h 35 min
Bit rate mode : Constant
Bit rate : 640 kb/s
Channel(s) : 6 channels
Channel layout : L R C LFE Ls Rs
Sampling rate : 48.0 kHz
Frame rate : 31.250 FPS (1536 SPF)
Compression mode : Lossy
Stream size : 438 MiB (13%)
Language : English
Service kind : Complete Main
Default : No
Forced : No

Text #1
ID : 8
Format : UTF-8
Codec ID : S_TEXT/UTF8
Codec ID/Info : UTF-8 Plain Text
Duration : 1 h 32 min
Bit rate : 80 b/s
Count of elements : 1074
Stream size : 54.4 KiB (0%)
Language : Russian
Default : No
Forced : No

Text #2
ID : 9
Format : UTF-8
Codec ID : S_TEXT/UTF8
Codec ID/Info : UTF-8 Plain Text
Duration : 1 h 34 min
Bit rate : 60 b/s
Count of elements : 1543
Stream size : 42.0 KiB (0%)
Title : SDH
Language : English
Default : No
Forced : No


_________________
Проголосуй за трекер Открытый торрент трекер - RUS-MEDIA.ORG

Проголосуй Открытый торрент трекер - RUS-MEDIA.ORG


Вернуться к началу
 Профиль Отправить личное сообщение  
 
   Похожие торренты   Автор   Торрент   Размер 
В этой теме нет новых непрочитанных сообщений. Рыцарь перед Рождеством / The Knight Before Christmas [мелодрама, фэнтези, 2019] WEBRip 1080p, Mvo [Flarrow Films]

salma3

0 | 0

5.02 ГБ

В этой теме нет новых непрочитанных сообщений. Чёрный и синий / Black and Blue [Боевик, триллер, криминал, 2019] WEB-DLRip, Mvo [iTunes]

salma3

1088 | 210

1.46 ГБ

В этой теме нет новых непрочитанных сообщений. Чёрный и синий / Black and Blue [Боевик, триллер, криминал, 2019] WEB-DL 720p, Mvo [iTunes]

salma3

0 | 0

4.34 ГБ

В этой теме нет новых непрочитанных сообщений. Вверх тормашками / Head Over Heels [мелодрама, комедия, детектив, 2001] WEB-DLRip 720p, Mvo [Open Matte]

salma3

0 | 0

5.13 ГБ

В этой теме нет новых непрочитанных сообщений. Первый рыцарь / First Knight [драма, мелодрама, приключения, 1995] BDRip 720р, Dub

salma3

0 | 0

4.36 ГБ

В этой теме нет новых непрочитанных сообщений. Невероятные приключения янки в Африке / Yankee Zulu [Комедия, 1993] WEB-DLRip 720p, Mvo

salma3

0 | 0

4.41 ГБ

В этой теме нет новых непрочитанных сообщений. Чёрный и синий / Black and Blue [Боевик, триллер, криминал, 2019] WEB-DL 1080p, Mvo [iTunes]

salma3

39 | 26

4.05 ГБ


Начать новую тему Ответить на тему  [ 1 сообщение ] 




Для Мосгорсуда, Роскомнадзора и рекламодателей:: rstracker[собака]yandex.ru
cron