COVID-19 - Последняя информация о коронавирусе на сайте Минздрава




Торрент файл
скачать торрент магнет ссылка Добавлен: 09 мар 2020, 23:44
Размер: 5.99 ГБ
Сидеров: 0
Личеров: 0
Статус: (salma3)
Автор

СообщениеДобавлено: 09 мар 2020, 23:44 

Не в сети
Супермодератор
Аватара пользователя
Дата регистрации:
15 фев 2012, 16:44
Возраст: 31
Спасибо: 8277 / 2148
Сообщения: 96623
Год выхода: 2005
Жанр: драма, мелодрама
Режиссер: Хантер Ричардс

В ролях: Крис Эванс, Джессика Бил, Джой Брайант, Джейсон Стэйтем, Келли Гарнер, Айла Фишер, Луис С.К., Джефф Вульф, Дейн Кук, Лина Эско...

О фильме:
Бросившись в пучину страстного, бурного романа с девушкой по имени Лондон, Сид верил, что эта музыка сфер будет вечной, но ошибся. Однажды они оба поняли, что чувства исчерпали себя, и Лондон ушла из жизни героя. Но девушка ушла, а боль осталась. Пытаясь заглушить муки разбитого сердца, Сид пускается во все тяжкие, глуша себя виски и наркотиками. Тщетно! Поняв, что его жизнь бессмысленна без любимой, герой решает во что бы то ни стало увидеть Лондон и либо уговорить её вернуться, либо умереть. Но у него будет всего одна попытка, если он не успеет сделать это сегодня, он потеряет эту девушку окончательно: завтра Лондон навсегда уезжает из города.



Страна: Великобритания, США
Продолжительность: 01:32:33
Перевод: авторский (одноголосый), профессиональный (многоголосый), профессиональный (двухголосый)

Качество: WEB-DL 1080p | AMZN
Видео: MPEG-4 AVC, 1920x1080 (16:9), 7.53 Mbps, 23.976 fps
Звук:
№ 1: AC3 | 5.1 | 48.0 kHz | 448 kbps - Авторский Дмитрий Есарев - ненормативная лексика
№ 2: AC3 | 5.1 | 48.0 kHz | 448 kbps - Двухголосый, закадровый Видеосервис
№ 3: AC3 | 2.0 | 48.0 kHz | 192 kbps - Многоголосый, закадровый Первый канал
№ 4: E-AC3 | 5.1 | 48.0 kHz | 640 kbps - English
Субтитры: английские

General
Unique ID : 94458271520924120187896591008065046636 (0x471000593DE2390A598986E73D92C86C)
Complete name : C:MKV-iP27London.[AMZN].2005.WEB-DL.1080p.[iP27].mkv
Format : Matroska
Format version : Version 4
File size : 5.99 GiB
Duration : 1 h 32 min
Overall bit rate mode : Variable
Overall bit rate : 9 260 kb/s
Movie name : London (Лондон) 2005 - [iP27]
Encoded date : UTC 2020-03-07 10:14:58
Writing application : mkvmerge v43.0.0 ('The Quartermaster') 64-bit
Writing library : libebml v1.3.10 + libmatroska v1.5.2

Video
ID : 1
Format : AVC
Format/Info : Advanced Video Codec
Format profile : High@L4
Format settings : CABAC / 4 Ref Frames
Format settings, CABAC : Yes
Format settings, Reference frames : 4 frames
Codec ID : V_MPEG4/ISO/AVC
Duration : 1 h 32 min
Bit rate mode : Variable
Bit rate : 7 530 kb/s
Maximum bit rate : 15.0 Mb/s
Width : 1 920 pixels
Height : 1 080 pixels
Display aspect ratio : 16:9
Frame rate mode : Constant
Frame rate : 23.976 (24000/1001) FPS
Color space : YUV
Chroma subsampling : 4:2:0
Bit depth : 8 bits
Scan type : Progressive
Bits/(Pixel*Frame) : 0.151
Stream size : 4.87 GiB (81%)
Title : AMZN_QOQ
Language : English
Default : Yes
Forced : No
Color range : Limited
Color primaries : BT.709
Transfer characteristics : BT.709
Matrix coefficients : BT.709

Audio #1
ID : 2
Format : AC-3
Format/Info : Audio Coding 3
Commercial name : Dolby Digital
Codec ID : A_AC3
Duration : 1 h 32 min
Bit rate mode : Constant
Bit rate : 448 kb/s
Channel(s) : 6 channels
Channel layout : L R C LFE Ls Rs
Sampling rate : 48.0 kHz
Frame rate : 31.250 FPS (1536 SPF)
Compression mode : Lossy
Stream size : 296 MiB (5%)
Title : AVO (Д. Есарев)
Language : Russian
Service kind : Complete Main
Default : Yes
Forced : No

Audio #2
ID : 3
Format : AC-3
Format/Info : Audio Coding 3
Commercial name : Dolby Digital
Codec ID : A_AC3
Duration : 1 h 32 min
Bit rate mode : Constant
Bit rate : 448 kb/s
Channel(s) : 6 channels
Channel layout : L R C LFE Ls Rs
Sampling rate : 48.0 kHz
Frame rate : 31.250 FPS (1536 SPF)
Compression mode : Lossy
Stream size : 296 MiB (5%)
Title : DVO (Видеосервис)
Language : Russian
Service kind : Complete Main
Default : No
Forced : No

Audio #3
ID : 4
Format : AC-3
Format/Info : Audio Coding 3
Commercial name : Dolby Digital
Codec ID : A_AC3
Duration : 1 h 32 min
Bit rate mode : Constant
Bit rate : 192 kb/s
Channel(s) : 2 channels
Channel layout : L R
Sampling rate : 48.0 kHz
Frame rate : 31.250 FPS (1536 SPF)
Compression mode : Lossy
Stream size : 127 MiB (2%)
Title : MVO (Первый канал)
Language : Russian
Service kind : Complete Main
Default : No
Forced : No

Audio #4
ID : 5
Format : E-AC-3
Format/Info : Enhanced AC-3
Commercial name : Dolby Digital Plus
Codec ID : A_EAC3
Duration : 1 h 32 min
Bit rate mode : Constant
Bit rate : 640 kb/s
Channel(s) : 6 channels
Channel layout : L R C LFE Ls Rs
Sampling rate : 48.0 kHz
Frame rate : 31.250 FPS (1536 SPF)
Compression mode : Lossy
Stream size : 424 MiB (7%)
Title : Original
Language : English
Service kind : Complete Main
Default : No
Forced : No

Text
ID : 6
Format : UTF-8
Codec ID : S_TEXT/UTF8
Codec ID/Info : UTF-8 Plain Text
Duration : 1 h 29 min
Bit rate : 92 b/s
Count of elements : 1690
Stream size : 60.5 KiB (0%)
Title : SDH
Language : English
Default : No
Forced : No

Menu
00:00:00.000 : en:Chapter 1
00:03:53.667 : en:Chapter 2
00:05:59.501 : en:Chapter 3
00:07:31.035 : en:Chapter 4
00:09:06.202 : en:Chapter 5
00:11:17.202 : en:Chapter 6
00:13:36.636 : en:Chapter 7
00:15:34.403 : en:Chapter 8
00:17:28.436 : en:Chapter 9
00:21:23.736 : en:Chapter 10
00:23:48.736 : en:Chapter 11
00:26:12.570 : en:Chapter 12
00:27:46.371 : en:Chapter 13
00:32:56.705 : en:Chapter 14
00:37:00.939 : en:Chapter 15
00:41:08.439 : en:Chapter 16
00:43:03.839 : en:Chapter 17
00:45:41.139 : en:Chapter 18
00:51:45.306 : en:Chapter 19
00:53:07.140 : en:Chapter 20
00:57:56.640 : en:Chapter 21
01:00:38.807 : en:Chapter 22
01:07:01.374 : en:Chapter 23
01:13:24.341 : en:Chapter 24
01:13:24.841 : en:Chapter 25
01:16:36.175 : en:Chapter 26
01:19:05.575 : en:Chapter 27
01:23:15.910 : en:Chapter 28
01:31:59.577 : en:Chapter 29
Перевод Д. Есарева доступен благодаря Переулку Переводмана - petrena. Работа со звуком - mihaildns.
Синхронизация под Amazon-версию - iP27.
За запись перевода Первого канала спасибо team_6strun
(парочка небольших моментов были зацензурены, поэтому в эти места вставлен перевод с DVD-R5 от Видеосервис).


_________________
Проголосуй за трекер Открытый торрент трекер - RUS-MEDIA.ORG

Проголосуй Открытый торрент трекер - RUS-MEDIA.ORG


Скачать книги и аудио книги через торрент


Вернуться к началу
 Профиль Отправить личное сообщение  
 
   Похожие торренты   Автор   Торрент   Размер 
В этой теме нет новых непрочитанных сообщений. Побеждая Лондон / Winning London [Комедия, мелодрама, семейный, 2001] DVDRip-AVC, Mvo

salma3

8 | 1

2.32 ГБ

В этой теме нет новых непрочитанных сообщений. Без ума от любви / Mozart and the Whale [драма, мелодрама, комедия, 2005] WEB-DL 1080p, Mvo

salma3

0 | 0

3.78 ГБ

В этой теме нет новых непрочитанных сообщений. Однажды в Лондоне / Once Upon a Time in London [криминал, 2019] WEB-DL 1080p, Mvo

salma3

54 | 8

3.93 ГБ

В этой теме нет новых непрочитанных сообщений. Отвязные приключения в Лондоне / Lost in London [Драма, комедия, 2017] WEB-DL 1080p, Dub [iTunes]

salma3

0 | 0

10.31 ГБ

В этой теме нет новых непрочитанных сообщений. Элизабеттаун / Elizabethtown [Драма, мелодрама, комедия, 2005] WEB-DL 1080p, Dub [iTunes]

salma3

0 | 1

10.07 ГБ

В этой теме нет новых непрочитанных сообщений. Любимчик / Loverboy [Драма, мелодрама, экранизация, 2005] WEB-DLRip 720p, Mvo

salma3

0 | 0

2.99 ГБ

В этой теме нет новых непрочитанных сообщений. Безумие / Asylum [Триллер, драма, мелодрама, 2005] WEB-DLRip 720p, Mvo

salma3

40 | 21

5.64 ГБ


Начать новую тему Ответить на тему  [ 1 сообщение ] 




Для Мосгорсуда, Роскомнадзора и рекламодателей:: rstracker[собака]yandex.ru
cron