Торрент файл
скачать торрент магнет ссылка Добавлен: 28 фев 2020, 16:52
Размер: 7.26 ГБ
Сидеров: 0
Личеров: 0
Статус: (salma3)
Автор

СообщениеДобавлено: 28 фев 2020, 16:52 

Не в сети
Супермодератор
Аватара пользователя
Дата регистрации:
15 фев 2012, 16:44
Возраст: 32
Спасибо: 8321 / 2148
Сообщения: 97229
Год выхода: 2010
Жанр: мелодрама
Режиссер: Ан Хунг Тран

В ролях: Ринко Кикучи, Кеньити Мацуяма, Кико Мидзухара, Тетсуджи Тамаяма, Рейка Киришма

О фильме:
60-е годы прошлого века. Лучший друг Ватанабэ - Кидзуки - покончил жизнь самоубийством, а Ватанабэ полюбил его девушку - Наоко, чувственную и ранимую. После смерти любимого человека девушке казалось, что какая-то неотъемлемая часть ее самой безвозвратно исчезла. Чтобы залечить душевные раны, Наоко ложится в клинику, в это время Ватанабэ встречает Мидори - полную противоположность своей возлюбленной... Юноша разрывается между чувствами к двум девушкам, ведь каждая дорога ему по-своему.



Выпущено: Япония
Продолжительность: 02:13:03
Озвучивание: Профессиональное (многоголосое) [лицензия]

Файл
Формат: MKV
Качество: BDRip 720p
Видео: MPEG-4 AVC, 1280x544, 5514 кбит/сек, 23.976 fps
Аудио 1: Russian: 48 kHz, DTS, 3/2 (L,C,R,l,r) + LFE ch, 755 kbps avg
Аудио 2: Japanese: 48 kHz, DTS, 3/2 (L,C,R,l,r) + LFE ch, ~1510.00 kbps avg
Субтитры: Russian, English
Размер: 7.26 Gb

Complete name : Y:Norvezhskij.les.2010.BDRip.720p.mkv
Format : Matroska
File size : 7.26 GiB
Duration : 2h 13mn
Overall bit rate : 7 779 Kbps
Encoded date : UTC 2011-07-17 06:16:59
Writing application : mkvmerge v4.8.0 ('I Got The...') сборка от May 24 2011 03:12:58
Writing library : libebml v1.2.0 + libmatroska v1.1.0

Video
ID : 1
Format : AVC
Format/Info : Advanced Video Codec
Format profile : High@L4.1
Format settings, CABAC : Yes
Format settings, ReFrames : 5 frames
Codec ID : V_MPEG4/ISO/AVC
Duration : 2h 13mn
Bit rate : 5 514 Kbps
Width : 1 280 pixels
Height : 544 pixels
Display aspect ratio : 2.35:1
Frame rate : 23.976 fps
Color space : YUV
Chroma subsampling : 4:2:0
Bit depth : 8 bits
Scan type : Progressive
Bits/(Pixel*Frame) : 0.330
Stream size : 5.00 GiB (69%)
Writing library : x264 core 116 r2019 9cc407d
Encoding settings : cabac=1 / ref=5 / deblock=1:0:0 / analyse=0x3:0x133 / me=umh / subme=7 / psy=1 / psy_rd=1.00:0.00 / mixed_ref=1 / me_range=16 / chroma_me=1 / trellis=1 / 8x8dct=1 / cqm=0 / deadzone=21,11 / fast_pskip=0 / chroma_qp_offset=-2 / threads=18 / sliced_threads=0 / nr=0 / decimate=1 / interlaced=0 / bluray_compat=0 / constrained_intra=0 / bframes=3 / b_pyramid=2 / b_adapt=1 / b_bias=0 / direct=1 / weightb=1 / open_gop=0 / weightp=2 / keyint=250 / keyint_min=23 / scenecut=40 / intra_refresh=0 / rc_lookahead=40 / rc=2pass / mbtree=1 / bitrate=5514 / ratetol=1.0 / qcomp=0.60 / qpmin=0 / qpmax=69 / qpstep=4 / cplxblur=20.0 / qblur=0.5 / ip_ratio=1.40 / aq=1:1.00

Audio #1
ID : 2
Format : DTS
Format/Info : Digital Theater Systems
Codec ID : A_DTS
Duration : 2h 13mn
Bit rate mode : Constant
Bit rate : 755 Kbps
Channel(s) : 6 channels
Channel positions : Front: L C R, Side: L R, LFE
Sampling rate : 48.0 KHz
Bit depth : 24 bits
Compression mode : Lossy
Stream size : 721 MiB (10%)
Title : Профессиональный многоголосый (R5)
Language : Russian

Audio #2
ID : 3
Format : DTS
Format/Info : Digital Theater Systems
Codec ID : A_DTS
Duration : 2h 13mn
Bit rate mode : Constant
Bit rate : 1 510 Kbps
Channel(s) : 6 channels
Channel positions : Front: L C R, Side: L R, LFE
Sampling rate : 48.0 KHz
Bit depth : 24 bits
Compression mode : Lossy
Delay relative to video : 11ms
Stream size : 1.41 GiB (19%)
Language : Japanese

Text #1
ID : 4
Format : UTF-8
Codec ID : S_TEXT/UTF8
Codec ID/Info : UTF-8 Plain Text
Language : Russian

Text #2
ID : 5
Format : UTF-8
Codec ID : S_TEXT/UTF8
Codec ID/Info : UTF-8 Plain Text
Language : English


_________________
Проголосуй за трекер Открытый торрент трекер - RUS-MEDIA.ORG

Проголосуй Открытый торрент трекер - RUS-MEDIA.ORG


Вернуться к началу
 Профиль Отправить личное сообщение  
 
   Похожие торренты   Автор   Торрент   Размер 
В этой теме нет новых непрочитанных сообщений. Таинственный лес / The Village [триллер, мелодрама, 2004] WEB-DLRip-AVC, Dub

salma3

6 | 0

745.18 МБ

В этой теме нет новых непрочитанных сообщений. Невеста / The Bride [Ужасы, фантастика, мелодрама, 1985] BDRip 720p, Mvo

salma3

1 | 0

6.48 ГБ

В этой теме нет новых непрочитанных сообщений. Фландрия / Flandres [драма, мелодрама, военный, 2006] BDRip 720p, Mvo

salma3

0 | 0

6.95 ГБ

В этой теме нет новых непрочитанных сообщений. Игрок / The Player [Триллер, драма, мелодрама, 1992] BDRip 720p, Mvo

salma3

0 | 0

8.46 ГБ

В этой теме нет новых непрочитанных сообщений. Сидни Уайт / Sydney White [драма, мелодрама, комедия, 2007] BDRip 720p, Mvo

salma3

0 | 0

4.6 ГБ

В этой теме нет новых непрочитанных сообщений. Последняя любовь на Земле / Perfect Sense [Драма, мелодрама, 2011] BDRip 720p, Mvo

salma3

0 | 0

4.61 ГБ

В этой теме нет новых непрочитанных сообщений. Чужой среди нас / A Stranger Among Us [Драма, мелодрама, криминал, 1992] BDRip 720p, Mvo

salma3

0 | 0

7.54 ГБ


Начать новую тему Ответить на тему  [ 1 сообщение ] 




Для Мосгорсуда, Роскомнадзора и рекламодателей:: rstracker[собака]yandex.ru
cron