Торрент файл
скачать торрент магнет ссылка Добавлен: 21 фев 2020, 11:17
Размер: 10.59 ГБ
Сидеров: 0
Личеров: 0
Статус: (salma3)
Автор

СообщениеДобавлено: 21 фев 2020, 11:17 

Не в сети
Супермодератор
Аватара пользователя
Дата регистрации:
15 фев 2012, 16:44
Возраст: 33
Спасибо: 8325 / 2148
Сообщения: 97229
Год выхода: 2002
Жанр: боевик, драма, криминал
Режиссер: Уолтер Хилл

В ролях: Уэсли Снайпс, Винг Реймз, Питер Фальк, Майкл Рукер, Джон Седа, Уэс Стьюди, Фишер Стивенс, Дэйтон Калли, Эми Акино, Джонни Уильямс

О фильме:
Получив срок за изнасилование и лишившись своего звездного титула, чемпион по боксу в тяжелом весе Джордж Чемберс оказывается в знаменитой своими жестокими порядками тюрьме Свитуотэр, где уже 10 лет неприкасаемым чемпионом является грозный Монро Хатчен.
Непобедимый Чемберс знает, что в мире нет боксера лучше него, и он готов это доказать. Но и Хатчен не собирается проигрывать. Это поединок не на жизнь, а на смерть.



Страна: США, Германия
Продолжительность: 01:33:47
Перевод: Профессиональный (многоголосый закадровый), Профессиональный (двухголосый закадровый), Авторский (одноголосый закадровый)

Файл
Формат: MKV
Качество: WEB-DL 1080p
Видео: 1920x1080, 23.976 fps, MPEG-4 AVC, 13.2 Mb/s
Аудио 1: AC3, 2 ch, 192 kbps - Русский (MVO)
Аудио 2: AC3, 6 ch, 448 kbps - Русский (DVO R5)
Аудио 3: AC3, 6 ch, 384 kbps - Русский (DVO)
Аудио 4: AC3, 2 ch, 192 kbps - Русский (AVO Визгунов)
Аудио 5: DTS, 6 ch, 1509 kbps - Английский
Аудио 6: E-AC3, 2 ch, 224 kbps - Английский
Субтитры: русские, английские

General
Unique ID : 208974270788513377791417703944373128093 (0x9D36FB06C108C603B0C156CA8A3FCB9D)
Complete name : D:Undisputed (2002) Open Matte 1080p.mkv
Format : Matroska
Format version : Version 4
File size : 10.6 GiB
Duration : 1 h 33 min
Overall bit rate : 16.2 Mb/s
Encoded date : UTC 2020-02-20 17:22:41
Writing application : mkvmerge v8.3.0 ('Over the Horizon') 32bit
Writing library : libebml v1.3.1 + libmatroska v1.4.2

Video
ID : 1
Format : AVC
Format/Info : Advanced Video Codec
Format profile : High@L4
Format settings : CABAC / 4 Ref Frames
Format settings, CABAC : Yes
Format settings, Reference : 4 frames
Codec ID : V_MPEG4/ISO/AVC
Duration : 1 h 33 min
Bit rate : 13.2 Mb/s
Width : 1 920 pixels
Height : 1 080 pixels
Display aspect ratio : 16:9
Frame rate mode : Constant
Frame rate : 23.976 (24000/1001) FPS
Color space : YUV
Chroma subsampling : 4:2:0
Bit depth : 8 bits
Scan type : Progressive
Bits/(Pixel*Frame) : 0.266
Stream size : 8.66 GiB (82%)
Default : Yes
Forced : No
Color range : Limited
Color primaries : BT.709
Transfer characteristics : BT.709
Matrix coefficients : BT.709

Audio #1
ID : 2
Format : AC-3
Format/Info : Audio Coding 3
Commercial name : Dolby Digital
Codec ID : A_AC3
Duration : 1 h 33 min
Bit rate mode : Constant
Bit rate : 192 kb/s
Channel(s) : 2 channels
Channel layout : L R
Sampling rate : 48.0 kHz
Frame rate : 31.250 FPS (1536 SPF)
Bit depth : 16 bits
Compression mode : Lossy
Stream size : 129 MiB (1%)
Title : MVO
Language : Russian
Service kind : Complete Main
Default : Yes
Forced : No

Audio #2
ID : 3
Format : AC-3
Format/Info : Audio Coding 3
Commercial name : Dolby Digital
Codec ID : A_AC3
Duration : 1 h 33 min
Bit rate mode : Constant
Bit rate : 448 kb/s
Channel(s) : 6 channels
Channel layout : L R C LFE Ls Rs
Sampling rate : 48.0 kHz
Frame rate : 31.250 FPS (1536 SPF)
Bit depth : 16 bits
Compression mode : Lossy
Stream size : 300 MiB (3%)
Title : DVO R5
Language : Russian
Service kind : Complete Main
Default : No
Forced : No

Audio #3
ID : 4
Format : AC-3
Format/Info : Audio Coding 3
Commercial name : Dolby Digital
Codec ID : A_AC3
Duration : 1 h 33 min
Bit rate mode : Constant
Bit rate : 384 kb/s
Channel(s) : 6 channels
Channel layout : L R C LFE Ls Rs
Sampling rate : 48.0 kHz
Frame rate : 31.250 FPS (1536 SPF)
Bit depth : 16 bits
Compression mode : Lossy
Stream size : 257 MiB (2%)
Title : DVO
Language : Russian
Service kind : Complete Main
Default : No
Forced : No

Audio #4
ID : 5
Format : AC-3
Format/Info : Audio Coding 3
Commercial name : Dolby Digital
Codec ID : A_AC3
Duration : 1 h 33 min
Bit rate mode : Constant
Bit rate : 192 kb/s
Channel(s) : 2 channels
Channel layout : L R
Sampling rate : 48.0 kHz
Frame rate : 31.250 FPS (1536 SPF)
Bit depth : 16 bits
Compression mode : Lossy
Stream size : 129 MiB (1%)
Title : AVO Визгунов
Language : Russian
Service kind : Complete Main
Default : No
Forced : No

Audio #5
ID : 6
Format : DTS
Format/Info : Digital Theater Systems
Codec ID : A_DTS
Duration : 1 h 33 min
Bit rate mode : Constant
Bit rate : 1 509 kb/s
Channel(s) : 6 channels
Channel layout : C L R Ls Rs LFE
Sampling rate : 48.0 kHz
Frame rate : 93.750 FPS (512 SPF)
Bit depth : 24 bits
Compression mode : Lossy
Stream size : 1 011 MiB (9%)
Language : English
Default : No
Forced : No

Audio #6
ID : 7
Format : E-AC-3
Format/Info : Enhanced AC-3
Commercial name : Dolby Digital Plus
Codec ID : A_EAC3
Duration : 1 h 33 min
Bit rate mode : Constant
Bit rate : 224 kb/s
Channel(s) : 2 channels
Channel layout : L R
Sampling rate : 48.0 kHz
Frame rate : 31.250 FPS (1536 SPF)
Compression mode : Lossy
Stream size : 150 MiB (1%)
Title : Original - Amazon
Language : English
Service kind : Complete Main
Default : No
Forced : No

Text #1
ID : 8
Format : UTF-8
Codec ID : S_TEXT/UTF8
Codec ID/Info : UTF-8 Plain Text
Duration : 1 h 26 min
Bit rate : 120 b/s
Count of elements : 1132
Stream size : 76.3 KiB (0%)
Language : Russian
Default : No
Forced : No

Text #2
ID : 9
Format : UTF-8
Codec ID : S_TEXT/UTF8
Codec ID/Info : UTF-8 Plain Text
Duration : 1 h 29 min
Bit rate : 84 b/s
Count of elements : 1690
Stream size : 55.5 KiB (0%)
Language : English
Default : No
Forced : No
Исходник видео WEB-DL Amazon STARZ (периодически появляется логотип).
Open Matte-версия фильма имеет большее наполнение кадра по сравнению с Blu-ray.

Сравнения:




_________________
Проголосуй за трекер Открытый торрент трекер - RUS-MEDIA.ORG

Проголосуй Открытый торрент трекер - RUS-MEDIA.ORG


Вернуться к началу
 Профиль Отправить личное сообщение  
 
   Похожие торренты   Автор   Торрент   Размер 
В этой теме нет новых непрочитанных сообщений. Экстремалы / Extreme Ops [боевик, триллер, приключения, 2002] WEB-DL 1080p, Dub [Open Matte]

salma3

0 | 0

9.62 ГБ

В этой теме нет новых непрочитанных сообщений. Комната страха / Panic Room [триллер, драма, криминал, 2002] WEB-DLRip-AVC, Dub [Open Matte]

salma3

0 | 0

2.18 ГБ

В этой теме нет новых непрочитанных сообщений. Экстремалы / Extreme Ops [боевик, триллер, приключения, 2002] WEB-DLRip 720p, Dub [Open Matte]

salma3

0 | 0

4.37 ГБ

В этой теме нет новых непрочитанных сообщений. Останься / Stay [триллер, драма, детектив, 2005] WEB-DL 1080p, Mvo [Open Matte]

salma3

0 | 0

10.14 ГБ

В этой теме нет новых непрочитанных сообщений. Кинг Конг / King Kong [боевик, драма, приключения, 2005] WEB-DL 1080p, Dub [Театральная версия] [Open Matte]

salma3

2 | 14

18.72 ГБ

В этой теме нет новых непрочитанных сообщений. Проклятый путь / Road to Perdition [Триллер, драма, приключения, 2002] WEB-DLRip 720p, Dub [Open Matte]

salma3

0 | 0

7.75 ГБ

В этой теме нет новых непрочитанных сообщений. Перевозчик 2 / Transporter 2 [боевик, триллер, криминал, 2005] WEB-DLRip, Dub [Театральная версия] [Open Matte]

salma3

0 | 0

1.46 ГБ


Начать новую тему Ответить на тему  [ 1 сообщение ] 




Для Мосгорсуда, Роскомнадзора и рекламодателей:: rstracker[собака]yandex.ru
cron