Торрент файл
скачать торрент магнет ссылка Добавлен: 17 фев 2020, 16:18
Размер: 5.98 ГБ
Сидеров: 0
Личеров: 0
Статус: (salma3)
Автор

СообщениеДобавлено: 17 фев 2020, 16:18 

Не в сети
Супермодератор
Аватара пользователя
Дата регистрации:
15 фев 2012, 16:44
Возраст: 33
Спасибо: 8328 / 2148
Сообщения: 97250
Год выхода: 1998
Жанр: триллер, драма
Режиссер: Марк Пеллингтон

В ролях: Джефф Бриджес, Тим Роббинс, Джоан Кьюсак, Хоуп Дэвис, Роберт Госсетт, Мейсон Гэмбл, Спенсер Трит Кларк, Стенли Андерсон, Вивиан Вайвз, Ли Стрингер

О фильме:
Интеллигентный профессор Майкл Фарадей, в одиночку воспитывающий своего сына после трагической гибели жены во время рейда ФБР, и не представляет, какой крутой поворот вскоре совершит его судьба. Знакомство с милой соседской семьей помогает Майклу оправиться от потрясения и вернуться к нормальной жизни. Однако чем дольше Майкл общается с новыми друзьями, тем больше необъяснимых сомнений и тревог появляется в его душе. Поймав несколько раз соседа на мелкой лжи, Майкл решает выяснить все об этом человеке. И его открытия оказываются гораздо страшнее, чем он мог себе вообразить.



Страна: США
Продолжительность: 01:57:45
Перевод: Профессиональный (полное дублирование), профессиональный (двухголосый, закадровый), авторский (одноголосый, закадровый) Ю.Сербин, авторский (одноголосый, закадровый) Ю.Живов, авторский (одноголосый, закадровый) С.Визгунов, авторский (одноголосый, закадровый) М.Яроцкий (kyberpunk)

Файл
Кодек: x264
Качество: BDRip 720p
Видео: 1280x534 (2.40:1), 23.976fps, MPEG-4 AVC, ~4388 kb/s, 0.268 bit/pixel
Звук:
Audio 1: Dolby AC3 48000Hz stereo 192kbps - DUB [rus]
Audio 2: Dolby AC3 48000Hz 6ch 448kbps - DVO [rus]
Audio 3: Dolby AC3 48000Hz 6ch 448kbps - AVO - Ю.Сербин [rus]
Audio 4: Dolby AC3 48000Hz 6ch 448kbps - AVO - Ю.Живов [rus]
Audio 5: Dolby AC3 48000Hz 6ch 448kbps - AVO - С.Визгунов [rus]
Audio 6: Dolby AC3 48000Hz 6ch 448kbps - AVO - М.Яроцкий (kyberpunk) [rus]
Audio 7: Dolby AC3 48000Hz 6ch 448kbps - Original [eng]
Субтитры: Русские, английские

ЦитатаКто-то писал:
Перевод Михаила Яроцкого доступен благодаря Pr0peLLer, работа со звуком - Переводман.

General
Unique ID : 333831492902613618846160519128314310740 (0xFB259B5AEB43A4DA4445C3BF868C7054)
Complete name : Дорога на Арлингтон - Arlington Road (1998) BDRip 720p.mkv
Format : Matroska
Format version : Version 4 / Version 2
File size : 5.98 GiB
Duration : 1 h 57 min
Overall bit rate : 7 269 kb/s
Movie name : Arlington Road (1998)
Encoded date : UTC 2020-02-14 13:05:59
Writing application : mkvmerge v43.0.0 ('The Quartermaster') 64-bit
Writing library : libebml v1.3.10 + libmatroska v1.5.2

Video
ID : 1
Format : AVC
Format/Info : Advanced Video Codec
Format profile : High@L4.1
Format settings, CABAC : Yes
Format settings, RefFrames : 9 frames
Codec ID : V_MPEG4/ISO/AVC
Duration : 1 h 57 min
Bit rate : 4 388 kb/s
Width : 1 280 pixels
Height : 534 pixels
Display aspect ratio : 2.40:1
Frame rate mode : Constant
Frame rate : 23.976 (24000/1001) FPS
Color space : YUV
Chroma subsampling : 4:2:0
Bit depth : 8 bits
Scan type : Progressive
Bits/(Pixel*Frame) : 0.268
Stream size : 3.61 GiB (60%)
Writing library : x264 core 157 r2935 545de2f
Encoding settings : cabac=1 / ref=9 / deblock=1:-3:-3 / analyse=0x3:0x113 / me=umh / subme=11 / psy=1 / psy_rd=1.00:0.00 / mixed_ref=1 / me_range=32 / chroma_me=1 / trellis=2 / 8x8dct=1 / cqm=0 / deadzone=21,11 / fast_pskip=1 / chroma_qp_offset=-4 / threads=6 / lookahead_threads=1 / sliced_threads=0 / nr=0 / decimate=1 / interlaced=0 / bluray_compat=0 / constrained_intra=0 / bframes=10 / b_pyramid=2 / b_adapt=2 / b_bias=0 / direct=1 / weightb=1 / open_gop=0 / weightp=2 / keyint=240 / keyint_min=23 / scenecut=40 / intra_refresh=0 / rc_lookahead=60 / rc=2pass / mbtree=1 / bitrate=4388 / ratetol=1.0 / qcomp=0.60 / qpmin=0 / qpmax=69 / qpstep=4 / cplxblur=20.0 / qblur=0.5 / vbv_maxrate=50000 / vbv_bufsize=62500 / nal_hrd=none / filler=0 / ip_ratio=1.40 / aq=1:0.90
Language : English
Default : Yes
Forced : No

Audio #1
ID : 2
Format : AC-3
Format/Info : Audio Coding 3
Format settings, Endianness : Big
Codec ID : A_AC3
Duration : 1 h 57 min
Bit rate mode : Constant
Bit rate : 192 kb/s
Channel(s) : 2 channels
Channel positions : Front: L R
Sampling rate : 48.0 kHz
Frame rate : 31.250 FPS (1536 SPF)
Bit depth : 16 bits
Compression mode : Lossy
Stream size : 162 MiB (3%)
Title : DUB
Language : Russian
Service kind : Complete Main
Default : Yes
Forced : No

Audio #2
ID : 3
Format : AC-3
Format/Info : Audio Coding 3
Format settings, Endianness : Big
Codec ID : A_AC3
Duration : 1 h 57 min
Bit rate mode : Constant
Bit rate : 448 kb/s
Channel(s) : 6 channels
Channel positions : Front: L C R, Side: L R, LFE
Sampling rate : 48.0 kHz
Frame rate : 31.250 FPS (1536 SPF)
Bit depth : 16 bits
Compression mode : Lossy
Stream size : 377 MiB (6%)
Title : MVO
Language : Russian
Service kind : Complete Main
Default : No
Forced : No

Audio #3
ID : 4
Format : AC-3
Format/Info : Audio Coding 3
Format settings, Endianness : Big
Codec ID : A_AC3
Duration : 1 h 57 min
Bit rate mode : Constant
Bit rate : 448 kb/s
Channel(s) : 6 channels
Channel positions : Front: L C R, Side: L R, LFE
Sampling rate : 48.0 kHz
Frame rate : 31.250 FPS (1536 SPF)
Bit depth : 16 bits
Compression mode : Lossy
Stream size : 377 MiB (6%)
Title : AVO - Ю.Сербин
Language : Russian
Service kind : Complete Main
Default : No
Forced : No

Audio #4
ID : 5
Format : AC-3
Format/Info : Audio Coding 3
Format settings, Endianness : Big
Codec ID : A_AC3
Duration : 1 h 57 min
Bit rate mode : Constant
Bit rate : 448 kb/s
Channel(s) : 6 channels
Channel positions : Front: L C R, Side: L R, LFE
Sampling rate : 48.0 kHz
Frame rate : 31.250 FPS (1536 SPF)
Bit depth : 16 bits
Compression mode : Lossy
Stream size : 377 MiB (6%)
Title : AVO - Ю.Живов
Language : Russian
Service kind : Complete Main
Default : No
Forced : No

Audio #5
ID : 6
Format : AC-3
Format/Info : Audio Coding 3
Format settings, Endianness : Big
Codec ID : A_AC3
Duration : 1 h 57 min
Bit rate mode : Constant
Bit rate : 448 kb/s
Channel(s) : 6 channels
Channel positions : Front: L C R, Side: L R, LFE
Sampling rate : 48.0 kHz
Frame rate : 31.250 FPS (1536 SPF)
Bit depth : 16 bits
Compression mode : Lossy
Stream size : 377 MiB (6%)
Title : AVO - С.Визгунов
Language : Russian
Service kind : Complete Main
Default : No
Forced : No

Audio #6
ID : 7
Format : AC-3
Format/Info : Audio Coding 3
Format settings, Endianness : Big
Codec ID : A_AC3
Duration : 1 h 57 min
Bit rate mode : Constant
Bit rate : 448 kb/s
Channel(s) : 6 channels
Channel positions : Front: L C R, Side: L R, LFE
Sampling rate : 48.0 kHz
Frame rate : 31.250 FPS (1536 SPF)
Bit depth : 16 bits
Compression mode : Lossy
Stream size : 377 MiB (6%)
Title : AVO - М.Яроцкий (kyberpunk)
Language : Russian
Service kind : Complete Main
Default : No
Forced : No

Audio #7
ID : 8
Format : AC-3
Format/Info : Audio Coding 3
Format settings, Endianness : Big
Codec ID : A_AC3
Duration : 1 h 57 min
Bit rate mode : Constant
Bit rate : 448 kb/s
Channel(s) : 6 channels
Channel positions : Front: L C R, Side: L R, LFE
Sampling rate : 48.0 kHz
Frame rate : 31.250 FPS (1536 SPF)
Bit depth : 16 bits
Compression mode : Lossy
Stream size : 377 MiB (6%)
Title : Original
Language : English
Service kind : Complete Main
Default : No
Forced : No

Text #1
ID : 9
Format : UTF-8
Codec ID : S_TEXT/UTF8
Codec ID/Info : UTF-8 Plain Text
Duration : 1 h 52 min
Bit rate : 91 b/s
Count of elements : 913
Stream size : 75.3 KiB (0%)
Language : Russian
Default : No
Forced : No

Text #2
ID : 10
Format : UTF-8
Codec ID : S_TEXT/UTF8
Codec ID/Info : UTF-8 Plain Text
Duration : 1 h 51 min
Bit rate : 55 b/s
Count of elements : 1196
Stream size : 45.2 KiB (0%)
Language : English
Default : No
Forced : No

Menu
00:00:00.000 : en:Start
00:08:14.619 : en:Brady's Parents
00:13:38.818 : en:Grant
00:20:53.627 : en:American Terrorism
00:26:54.780 : en:Whit Carver
00:34:11.466 : en:Guests of Honor
00:39:15.603 : en:The Blueprint
00:47:19.336 : en:Dean Scobee
00:55:38.085 : en:Values & Accountability
01:02:25.742 : en:Record Verification
01:11:17.690 : en:Class of '78
01:17:08.123 : en:Siege Flashback
01:24:22.599 : en:Name Change
01:35:58.252 : en:In Oliver's Study
01:44:05.906 : en:William Fenimore
01:46:56.076 : en:"You Don't Know Me."


_________________
Проголосуй за трекер Открытый торрент трекер - RUS-MEDIA.ORG

Проголосуй Открытый торрент трекер - RUS-MEDIA.ORG


Вернуться к началу
 Профиль Отправить личное сообщение  
 
   Похожие торренты   Автор   Торрент   Размер 
В этой теме нет новых непрочитанных сообщений. Блэкджек / Blackjack [Боевик, триллер, 1998] BDRip 720p, Mvo

salma3

1 | 0

5.3 ГБ

В этой теме нет новых непрочитанных сообщений. Вампиры / Vampires [Ужасы, боевик, триллер, 1998] BDRip-HEVC 1080p, Dub

salma3

34 | 13

7.7 ГБ

В этой теме нет новых непрочитанных сообщений. Шулера / Rounders [драма, криминал, 1998] BDRip 720p, Mvo

salma3

1 | 0

6.56 ГБ

В этой теме нет новых непрочитанных сообщений. Дорожное приключение / Road Trip [Комедия, 2000] BDRip-HEVC 1080p, Dub [Unrated]

salma3

10 | 16

7.57 ГБ

В этой теме нет новых непрочитанных сообщений. Ледяной драйв / The Ice Road [Боевик, триллер, 2021] WEB-DL 1080p, Dub [iTunes]

salma3

24 | 4

3.3 ГБ

В этой теме нет новых непрочитанных сообщений. Ледяной драйв / The Ice Road [Боевик, триллер, 2021] WEB-DLRip, Dub [iTunes]

salma3

1 | 5

1.46 ГБ

В этой теме нет новых непрочитанных сообщений. Ледяной драйв / The Ice Road [Боевик, триллер, 2021] WEB-DL-HEVC 2160p, Dub [iTunes] [4K]

salma3

0 | 0

12.11 ГБ


Начать новую тему Ответить на тему  [ 1 сообщение ] 




Для Мосгорсуда, Роскомнадзора и рекламодателей:: rstracker[собака]yandex.ru
cron