Торрент файл
скачать торрент магнет ссылка Добавлен: 14 фев 2020, 01:30
Размер: 3.81 ГБ
Сидеров: 0
Личеров: 0
Статус: (salma3)
Автор

СообщениеДобавлено: 14 фев 2020, 01:30 

Не в сети
Супермодератор
Аватара пользователя
Дата регистрации:
15 фев 2012, 16:44
Возраст: 30
Спасибо: 8185 / 2148
Сообщения: 95725
Год выхода: 2020
Жанр: Фэнтези, комедия, приключения
Режиссер: Стивен Гейган

В ролях: Роберт Дауни мл., Антонио Бандерас, Майкл Шин, Джим Бродбент, Джесси Бакли, Гарри Коллетт, Эмма Томпсон, Рами Малек, Джон Сина, Кумэйл Нанджиани

О фильме:
Семь лет назад доктор Дулиттл, прославленный врач-ветеринар, живущий в викторианской Англии, потерял свою жену. Теперь он ведет затворнический образ жизни, скрывшись за высокими стенами своего поместья. Экзотические животные из его коллекции - его единственная компания. Но когда неизвестная болезнь становится угрозой для жизни юной королевы, доктору Дулиттлу приходится покинуть свое убежище и отправиться в невероятное путешествие к мифическому острову. В поисках лекарства для королевы он вступит в схватку с беспощадными врагами, познакомится с диковинными существами и будет вынужден проявить недюжинное мужество и смекалку.



Страна: США, Китай, Великобритания
Продолжительность: 01:29:47
Перевод: Профессиональный [многоголосый] [HDRezka Studio]

Файл
Кодек: AVC
Качество: WEBRip 1080p
Видео: MPEG-4 AVC, 5500 Kбит/с, 1920x1040, 30.000 кадр/с
Аудио #1: Русский (АС3, 2 ch, 192 Кбит/с, 48.0 KHz)
Аудио #2: Английский (АС3, 2 ch, 384 Кбит/с, 48.0 KHz)

Источник: General
Unique ID : 233192248857197877441003388890269174248 (0xAF6F3188625B020F954E9B44131149E8)
Complete name : Dolittle.2020.WEBRip.1080p.mkv
Format : Matroska
Format version : Version 4
File size : 3.81 GiB
Duration : 1 h 29 min
Overall bit rate : 6 081 kb/s
Encoded date : UTC 2020-02-13 17:17:06
Writing application : mkvmerge v7.1.0 ('Good Love') 64bit built on Jul 27 2014 13:06:55
Writing library : libebml v1.3.0 + libmatroska v1.4.1

Video
ID : 1
Format : AVC
Format/Info : Advanced Video Codec
Format profile : High@L4.1
Format settings : CABAC / 4 Ref Frames
Format settings, CABAC : Yes
Format settings, Reference fra : 4 frames
Codec ID : V_MPEG4/ISO/AVC
Duration : 1 h 29 min
Bit rate : 5 500 kb/s
Width : 1 920 pixels
Height : 1 040 pixels
Display aspect ratio : 1.85:1
Frame rate mode : Constant
Frame rate : 30.000 FPS
Color space : YUV
Chroma subsampling : 4:2:0
Bit depth : 8 bits
Scan type : Progressive
Bits/(Pixel*Frame) : 0.092
Stream size : 3.45 GiB (90%)
Writing library : x264 core 148 r2748 97eaef2
Encoding settings : cabac=1 / ref=4 / deblock=1:0:0 / analyse=0x3:0x113 / me=umh / subme=9 / psy=1 / psy_rd=1.00:0.00 / mixed_ref=1 / me_range=16 / chroma_me=1 / trellis=2 / 8x8dct=1 / cqm=0 / deadzone=21,11 / fast_pskip=1 / chroma_qp_offset=-2 / threads=72 / lookahead_threads=6 / sliced_threads=0 / nr=0 / decimate=1 / interlaced=0 / bluray_compat=0 / constrained_intra=0 / bframes=3 / b_pyramid=2 / b_adapt=2 / b_bias=0 / direct=3 / weightb=1 / open_gop=0 / weightp=2 / keyint=250 / keyint_min=25 / scenecut=40 / intra_refresh=0 / rc_lookahead=50 / rc=abr / mbtree=1 / bitrate=5500 / ratetol=1.0 / qcomp=0.60 / qpmin=0 / qpmax=69 / qpstep=4 / ip_ratio=1.40 / aq=1:1.00
Language : English
Default : Yes
Forced : No

Audio #1
ID : 2
Format : AC-3
Format/Info : Audio Coding 3
Commercial name : Dolby Digital
Codec ID : A_AC3
Duration : 1 h 29 min
Bit rate mode : Constant
Bit rate : 192 kb/s
Channel(s) : 2 channels
Channel layout : L R
Sampling rate : 48.0 kHz
Frame rate : 31.250 FPS (1536 SPF)
Compression mode : Lossy
Stream size : 123 MiB (3%)
Title : HDRezka Studio
Language : Russian
Service kind : Complete Main
Default : Yes
Forced : No

Audio #2
ID : 3
Format : AC-3
Format/Info : Audio Coding 3
Commercial name : Dolby Digital
Codec ID : A_AC3
Duration : 1 h 29 min
Bit rate mode : Constant
Bit rate : 384 kb/s
Channel(s) : 2 channels
Channel layout : L R
Sampling rate : 48.0 kHz
Frame rate : 31.250 FPS (1536 SPF)
Compression mode : Lossy
Stream size : 247 MiB (6%)
Language : English
Service kind : Complete Main
Default : No
Forced : No


_________________
Проголосуй за трекер Открытый торрент трекер - RUS-MEDIA.ORG

Проголосуй Открытый торрент трекер - RUS-MEDIA.ORG


Скачать книги и аудио книги через торрент


Вернуться к началу
 Профиль Отправить личное сообщение  
 
   Похожие торренты   Автор   Торрент   Размер 
В этой теме нет новых непрочитанных сообщений. Доктор Дулиттл 2 / Dr. Dolittle 2 [комедия, семейный, фэнтези, 2001] WEB-DL 1080p, Mvo [Open Matte]

salma3

0 | 0

9.17 ГБ

В этой теме нет новых непрочитанных сообщений. Путешествие на Запад: Демоны / Xi you fu yao pian [фэнтези, комедия, приключения, 2017] WEBDLRip, Mvo

salma3

229 | 33

744.37 МБ

В этой теме нет новых непрочитанных сообщений. Путешествие на Запад: Демоны / Xi you fu yao pian [фэнтези, комедия, приключения, 2017] WEB-DLRip 720р, Mvo

salma3

365 | 208

3.41 ГБ

В этой теме нет новых непрочитанных сообщений. Путешествие на Запад: Демоны / Xi you fu yao pian [фэнтези, комедия, приключения, 2017] WEB-DLRip 1080р, Mvo

salma3

604 | 261

4.05 ГБ

В этой теме нет новых непрочитанных сообщений. King's man: Начало / The King's Man [Боевик, комедия, приключения, 2020] WEBRip 1080p, Dub [Трейлер №2]

K15

0 | 1

661.97 МБ

В этой теме нет новых непрочитанных сообщений. Хеллбой / Hellboy [фэнтези, боевик, приключения, 2019] WEBRip 1080p, Mvo [СВ Студия]

salma3

79 | 20

5.4 ГБ

В этой теме нет новых непрочитанных сообщений. Аванпост / The Outpost [S01] [Фэнтези, приключения, 2018] WEBRip 1080p, Mvo [IdeaFilm]

salma3

0 | 0

22.98 ГБ


Начать новую тему Ответить на тему  [ 1 сообщение ] 




Для Мосгорсуда, Роскомнадзора и рекламодателей:: mosgorsud-torrent[собачка]yandex.ru
cron