Торрент файл
скачать торрент магнет ссылка Добавлен: 02 фев 2020, 18:01
Размер: 3.43 ГБ
Сидеров: 0
Личеров: 0
Статус: (salma3)
Автор

СообщениеДобавлено: 02 фев 2020, 18:01 

Не в сети
Супермодератор
Аватара пользователя
Дата регистрации:
15 фев 2012, 16:44
Возраст: 33
Спасибо: 8325 / 2148
Сообщения: 97229
Год выпуска: 2018
Жанр: Ужасы, детектив
Режиссер: Сорен Юль Петерсен

В ролях: Энн Бергфельд, Карин Михельсен, Дэймон Янгер, Кристоффер Фабрициус, Мэдс Коудал, Ким Сёндерхолм, Густав Скавениус, Ларс Кнутсон, Фрейя Меллер-Серенсен, Ян Лёфберг

О фильме: По всей стране тишина. Все приклеены к телевизору и смотрят финал. Ни одной души не видно на улицах. На окраине Дании, однако, небольшая заправочная станция все еще нуждается в персонале. И в этот конкретный вечер дежурят две совершенно разные молодые женщины. Агнес, студентка колледжа, пытается работать над своей диссертацией, в то время как наивная Белинда отправляет смс, пытаясь привлечь внимание своего парня. К сожалению, смена не пройдет без происшествий, потому что отсутствие клиентов не означает отсутствие свидетелей.



Страна: Дания
Продолжительность: 01:39:05
Перевод: Профессиональный [многоголосый] [iTunes]

Файл
Качество: WEB-DL 1080p
Контейнер: MKV
Видео: MPEG-4 AVC, 1920x804, 4567 Kbps, 24.000 fps
Аудио: Russian: AC3, 6 ch, 384 kbps, 48.0 KHz - iTunes


General
Unique ID : 205356088512964934172186561495973906149 (0x9A7E24DE08201AB5A3C07830273A46E5)
Complete name : Finale.2018.WEB-DL.1080p.mkv
Format : Matroska
Format version : Version 4 / Version 2
File size : 3.43 GiB
Duration : 1 h 39 min
Overall bit rate : 4 953 kb/s
Encoded date : UTC 2020-02-02 00:23:17
Writing application : mkvmerge v8.3.0 ('Over the Horizon') 64bit
Writing library : libebml v1.3.1 + libmatroska v1.4.2

Video
ID : 1
Format : AVC
Format/Info : Advanced Video Codec
Format profile : High@L4
Format settings, CABAC : Yes
Format settings, RefFrames : 5 frames
Codec ID : V_MPEG4/ISO/AVC
Duration : 1 h 39 min
Bit rate : 4 567 kb/s
Width : 1 920 pixels
Height : 804 pixels
Display aspect ratio : 2.40:1
Frame rate mode : Constant
Frame rate : 24.000 FPS
Color space : YUV
Chroma subsampling : 4:2:0
Bit depth : 8 bits
Scan type : Progressive
Bits/(Pixel*Frame) : 0.123
Stream size : 3.16 GiB (92%)
Language : English
Default : Yes
Forced : No
Color range : Limited
Color primaries : BT.709
Transfer characteristics : BT.709
Matrix coefficients : BT.709

Audio
ID : 2
Format : AC-3
Format/Info : Audio Coding 3
Format settings, Endianness : Big
Codec ID : A_AC3
Duration : 1 h 39 min
Bit rate mode : Constant
Bit rate : 384 kb/s
Channel(s) : 6 channels
Channel positions : Front: L C R, Side: L R, LFE
Sampling rate : 48.0 kHz
Frame rate : 31.250 FPS (1536 SPF)
Bit depth : 16 bits
Compression mode : Lossy
Stream size : 272 MiB (8%)
Title : iTunes
Language : Russian
Service kind : Complete Main
Default : Yes
Forced : No

Menu
00:00:00.000 : en:Глава 1
00:08:36.375 : en:Глава 2
00:16:56.166 : en:Глава 3
00:25:30.707 : en:Глава 4
00:34:00.248 : en:Глава 5
00:42:27.581 : en:Глава 6
00:51:20.539 : en:Глава 7
01:00:10.705 : en:Глава 8
01:09:27.746 : en:Глава 9
01:17:36.787 : en:Глава 10
01:25:46.995 : en:Глава 11


_________________
Проголосуй за трекер Открытый торрент трекер - RUS-MEDIA.ORG

Проголосуй Открытый торрент трекер - RUS-MEDIA.ORG


Вернуться к началу
 Профиль Отправить личное сообщение  
 
   Похожие торренты   Автор   Торрент   Размер 
В этой теме нет новых непрочитанных сообщений. Призрачный патруль / Deadtectives [Ужасы, комедия, 2018] WEB-DL 1080p, Mvo [iTunes]

salma3

0 | 0

6.05 ГБ

В этой теме нет новых непрочитанных сообщений. Ип Ман 4 / Yip Man 4 / Ip Man 4: The Finale [Боевик, биография, 2019] WEB-DL 1080p, Mvo

salma3

0 | 0

5.91 ГБ

В этой теме нет новых непрочитанных сообщений. Добыча / Prey [Ужасы, триллер, детектив, 2019] WEB-DL 1080p, Dub [iTunes]

salma3

27 | 15

5.14 ГБ

В этой теме нет новых непрочитанных сообщений. Сверхъестественное / Supernatural [S14] [Ужасы, фэнтези, триллер, драма, детектив, 2018] WEB-DL 1080p, Mvo [NewStudio & NovaFilm]

K15

0 | 0

59.33 ГБ

В этой теме нет новых непрочитанных сообщений. Кукла 2: Брамс / Brahms: The Boy II [драма, детектив, ужасы, 2020] WEB-DL 1080p, Dub [iTunes]

salma3

0 | 0

3.53 ГБ

В этой теме нет новых непрочитанных сообщений. Пустой человек / The Empty Man [Детектив, ужасы, 2020] WEB-DLRip, Mvo [iTunes]

salma3

1 | 0

2.18 ГБ

В этой теме нет новых непрочитанных сообщений. Пустой человек / The Empty Man [Детектив, ужасы, 2020] WEB-DLRip, Mvo [iTunes]

salma3

0 | 0

1.46 ГБ


Начать новую тему Ответить на тему  [ 1 сообщение ] 




Для Мосгорсуда, Роскомнадзора и рекламодателей:: rstracker[собака]yandex.ru
cron