COVID-19 - Последняя информация о коронавирусе на сайте Минздрава




Торрент файл
скачать торрент магнет ссылка Добавлен: 27 янв 2020, 14:55
Размер: 15.35 ГБ
Сидеров: 0
Личеров: 0
Статус: (salma3)
Автор

СообщениеДобавлено: 27 янв 2020, 14:55 

Не в сети
Супермодератор
Аватара пользователя
Дата регистрации:
15 фев 2012, 16:44
Возраст: 32
Спасибо: 8304 / 2148
Сообщения: 97085
Год выпуска: 1978
Жанр: Фантастика, фэнтези, боевик
Выпущено: США
Режиссер: Ричард Доннер

В ролях: Кристофер Рив, Джин Хэкмен, Марго Киддер, Марлон Брандо, Джеки Купер, Нед Битти

О фильме: Цивилизация планеты Криптон стоит на грани гибели. Учёный Йор-Ел, чтобы спасти своему ребёнку жизнь, отправляет его на Землю. Маленький мальчик вырастает и открывает в себе неземные возможности. Он - Супермен. Огромная сила и способность летать помогают ему в борьбе с любым проявлением зла. И когда коварный Лекс Лютер и его приспешники строят планы, угрожающие человечеству, только Супермен может помешать им.

Качество: BDRip 1080p
Размер: 15.35 ГБ
Продолжительность: 02:31:25

Видео: MPEG-4 AVC, 11.0 Mбит/с, 1920x794
Аудио 1: русский, 48 kHz, DTS, 6 ch, 1509 kbps avg, [Профессиональный многоголосый, студия Пифагор]
Аудио 2: английский, 48 kHz, DTS, 6 ch, 1509 kbps avg, [Оригинал]
Аудио 3: английский, 48 kHz, AC3, 2 ch, 192 kbps avg, [Комментарий Richard Donner, Tom Mankiewicz]
Субтитры 1: русские
Субтитры 2: английские (для слабослышащих)

Исходник: PGor (HDtracker)



Специальный «Оскар» за визуальные эффекты (Лес Боуи, Колин Чилверс, Денис Н. Куп, Рой Филд, Дерек Меддингс, Зоран Перисич — Les Bowie, Colin Chilvers, Denys N. Coop, Roy Field, Derek Meddings, Zoran Perisic).

Сатурн, 2002 год
Номинации (1):
Лучшее DVD-издание классического фильма

Оскар, 1979 год
Победитель (1):
Награда за особые достижения — «за визуальные эффекты»

Номинации (3):
Лучший звук
Лучший монтаж
Лучший оригинальный саундтрек

Золотой глобус, 1979 год
Номинации (1):
Лучший саундтрек

Британская академия, 1979 год
Победитель (1):
Лучший новичок (Кристофер Рив)

Номинации (4):
Лучшая мужская роль второго плана (Джин Хэкмен)
Лучшая работа оператора
Лучшая работа художника-постановщика
Лучший звук

Сатурн, 1979 год
Победитель (5):
Лучший научно-фантастический фильм
Лучшая актриса (Марго Киддер)
Лучшие спецэффекты
Лучшая музыка
Лучшие декорации

Номинации (4):
Лучший режиссер (Ричард Доннер)
Лучший актер (Кристофер Рив)
Лучшая актриса второго плана (Валери Перрайн)
Лучшие костюмы
Общее
Уникальный идентификатор : 192205317363752646669753072832998683160 (0x909965CA4D42002A80150705CCF63218)
Полное имя : E:VideoSupermen.1978.x264.BDRip.1080p.mkv
Формат : Matroska
Версия формата : Version 4 / Version 2
Размер файла : 15,3 Гбайт
Продолжительность : 2 ч. 31 м.
Общий поток : 14,5 Мбит/сек
Название фильма : Супермен / Superman / 1978 / BDRip -- STarankov
Дата кодирования : UTC 2014-02-21 09:40:34
Программа кодирования : mkvmerge v6.6.0 ('The Edge Of The In Between') built on Dec 1 2013 17:55:00
Библиотека кодирования : libebml v1.3.0 + libmatroska v1.4.1

Видео
Идентификатор : 1
Формат : AVC
Формат/Информация : Advanced Video Codec
Профиль формата : High@L4.1
Параметр CABAC формата : Да
Параметр ReFrames формата : 4 кадра
Идентификатор кодека : V_MPEG4/ISO/AVC
Продолжительность : 2 ч. 31 м.
Битрейт : 11,0 Мбит/сек
Ширина : 1920 пикселей
Высота : 794 пикселя
Соотношение сторон : 2,40:1
Режим частоты кадров : Постоянный
Частота кадров : 23,976 кадра/сек
Цветовое пространство : YUV
Субдискретизация насыщенности : 4:2:0
Битовая глубина : 8 бит
Тип развёртки : Прогрессивная
Бит/(Пиксели*Кадры) : 0.301
Размер потока : 11,6 Гбайт (76%)
Библиотека кодирования : x264 core 138 r2358 9e941d1
Настройки программы : cabac=1 / ref=4 / deblock=1:-1:-1 / analyse=0x3:0x113 / me=umh / subme=10 / psy=1 / psy_rd=1.00:0.15 / mixed_ref=1 / me_range=24 / chroma_me=1 / trellis=2 / 8x8dct=1 / cqm=0 / deadzone=21,11 / fast_pskip=0 / chroma_qp_offset=-3 / threads=6 / lookahead_threads=1 / sliced_threads=0 / nr=0 / decimate=1 / interlaced=0 / bluray_compat=0 / constrained_intra=0 / bframes=6 / b_pyramid=2 / b_adapt=2 / b_bias=0 / direct=1 / weightb=1 / open_gop=0 / weightp=2 / keyint=230 / keyint_min=23 / scenecut=40 / intra_refresh=0 / rc_lookahead=40 / rc=crf / mbtree=0 / crf=19.0 / qcomp=0.60 / qpmin=0 / qpmax=69 / qpstep=4 / vbv_maxrate=50000 / vbv_bufsize=62500 / crf_max=0.0 / nal_hrd=none / ip_ratio=1.40 / pb_ratio=1.30 / aq=1:1.00
Язык : English
Default : Да
Forced : Нет

Аудио #1
Идентификатор : 2
Формат : DTS
Формат/Информация : Digital Theater Systems
Режим : 16
Параметр Endianness формата : Big
Идентификатор кодека : A_DTS
Продолжительность : 2 ч. 31 м.
Вид битрейта : Постоянный
Битрейт : 1509 Кбит/сек
Каналы : 6 каналов
Расположение каналов : Front: L C R, Side: L R, LFE
Частота : 48,0 КГц
Битовая глубина : 24 бит
Метод сжатия : С потерями
Размер потока : 1,60 Гбайт (10%)
Заголовок : MVO (студия Пифагор)
Язык : Russian
Default : Да
Forced : Нет

Аудио #2
Идентификатор : 3
Формат : DTS
Формат/Информация : Digital Theater Systems
Режим : 16
Параметр Endianness формата : Big
Идентификатор кодека : A_DTS
Продолжительность : 2 ч. 31 м.
Вид битрейта : Постоянный
Битрейт : 1509 Кбит/сек
Каналы : 6 каналов
Расположение каналов : Front: L C R, Side: L R, LFE
Частота : 48,0 КГц
Битовая глубина : 24 бит
Метод сжатия : С потерями
Размер потока : 1,60 Гбайт (10%)
Заголовок : Original
Язык : English
Default : Нет
Forced : Нет

Аудио #3
Идентификатор : 4
Формат : AC-3
Формат/Информация : Audio Coding 3
Профиль формата : Dolby Digital
Расширение режима : CM (complete main)
Параметр Endianness формата : Big
Идентификатор кодека : A_AC3
Продолжительность : 2 ч. 31 м.
Вид битрейта : Постоянный
Битрейт : 192 Кбит/сек
Каналы : 2 канала
Расположение каналов : Front: L R
Частота : 48,0 КГц
Битовая глубина : 16 бит
Метод сжатия : С потерями
Размер потока : 208 Мбайт (1%)
Заголовок : Commentary (Richard Donner, Tom Mankiewicz)
Язык : English
Default : Нет
Forced : Нет

Текст #1
Идентификатор : 5
Формат : UTF-8
Идентификатор кодека : S_TEXT/UTF8
Идентификатор кодека/Информация : UTF-8 Plain Text
Заголовок : русский
Язык : Russian
Default : Нет
Forced : Нет

Текст #2
Идентификатор : 6
Формат : UTF-8
Идентификатор кодека : S_TEXT/UTF8
Идентификатор кодека/Информация : UTF-8 Plain Text
Заголовок : английский (для слабослышащих)
Default : Нет
Forced : Нет

---[Information] [20.02.2014 23:05:33] avs [info]: 1920x794p 1:1 @ 24000/1001 fps (cfr)
---[Information] [20.02.2014 23:05:33] x264 [info]: using SAR=1/1
---[Information] [20.02.2014 23:05:33] x264 [info]: using cpu capabilities: MMX2 SSE2Fast SSSE3 SSE4.2
---[Information] [20.02.2014 23:05:33] x264 [info]: profile High, level 4.1
---[Information] [21.02.2014 16:05:00] x264 [info]: frame I:1645 Avg QP:17.43 size:199747
---[Information] [21.02.2014 16:05:00] x264 [info]: frame P:54609 Avg QP:18.30 size:104487
---[Information] [21.02.2014 16:05:00] x264 [info]: frame B:161582 Avg QP:20.35 size: 42056
---[Information] [21.02.2014 16:05:00] x264 [info]: consecutive B-frames: 1.8% 2.6% 4.2% 70.1% 10.0% 9.5% 1.9%
---[Information] [21.02.2014 16:05:00] x264 [info]: mb I I16..4: 10.5% 72.7% 16.8%
---[Information] [21.02.2014 16:05:00] x264 [info]: mb P I16..4: 3.7% 35.2% 2.8% P16..4: 29.2% 18.9% 7.2% 0.0% 0.0% skip: 2.9%
---[Information] [21.02.2014 16:05:00] x264 [info]: mb B I16..4: 0.6% 3.6% 0.2% B16..8: 40.0% 10.2% 2.5% direct:21.6% skip:21.3% L0:46.7% L1:37.7% BI:15.6%
---[Information] [21.02.2014 16:05:00] x264 [info]: 8x8 transform intra:83.0% inter:47.9%
---[Information] [21.02.2014 16:05:00] x264 [info]: coded y,uvDC,uvAC intra: 93.2% 94.3% 83.6% inter: 49.6% 50.8% 14.7%
---[Information] [21.02.2014 16:05:00] x264 [info]: i16 v,h,dc,p: 34% 10% 28% 28%
---[Information] [21.02.2014 16:05:00] x264 [info]: i8 v,h,dc,ddl,ddr,vr,hd,vl,hu: 8% 10% 21% 8% 10% 8% 11% 9% 15%
---[Information] [21.02.2014 16:05:00] x264 [info]: i4 v,h,dc,ddl,ddr,vr,hd,vl,hu: 8% 9% 9% 9% 13% 11% 15% 10% 17%
---[Information] [21.02.2014 16:05:00] x264 [info]: i8c dc,h,v,p: 60% 17% 12% 12%
---[Information] [21.02.2014 16:05:00] x264 [info]: Weighted P-Frames: Y:21.8% UV:12.4%
---[Information] [21.02.2014 16:05:00] x264 [info]: ref P L0: 51.3% 13.3% 22.7% 10.5% 2.2% 0.1%
---[Information] [21.02.2014 16:05:00] x264 [info]: ref B L0: 90.3% 7.3% 2.3%
---[Information] [21.02.2014 16:05:00] x264 [info]: ref B L1: 97.0% 3.0%
---[Information] [21.02.2014 16:05:00] x264 [info]: kb/s:11297.05
---[Information] [21.02.2014 16:05:00] encoded 217836 frames, 3.56 fps, 11297.05 kb/s
--[Information] [21.02.2014 16:05:01] Final statistics
---[Information] [21.02.2014 16:05:01] Constant Quality Mode: Quality 19 computed...
---[Information] [21.02.2014 16:05:01] Video Bitrate Obtained (approximate): 11298 kbit/s
--[Information] [21.02.2014 16:05:01] MediaInfo
---[Information] File: E:RipSupermen.1978.x264.BDRipSupermen.1978.x264.BDRip.1080p.mkv




_________________
Проголосуй за трекер Открытый торрент трекер - RUS-MEDIA.ORG

Проголосуй Открытый торрент трекер - RUS-MEDIA.ORG


Скачать книги и аудио книги через торрент


Вернуться к началу
 Профиль Отправить личное сообщение  
 
   Похожие торренты   Автор   Торрент   Размер 
В этой теме нет новых непрочитанных сообщений. Супермен / Superman [фантастика, боевик, драма, 1978] BDRip, Dub [Расширенная версия]

salma3

0 | 0

2.19 ГБ

В этой теме нет новых непрочитанных сообщений. Супермен и Лоис / Superman and Lois [01x01 из 15] [Фантастика, боевик, приключения, 2020] WEBRip, Dvo [Kerob]

salma3

10 | 6

577.3 МБ

В этой теме нет новых непрочитанных сообщений. Искусство Шаолиня – змея и журавль / She He Ba Bu [Боевик, драма, 1978] BDRip 1080p, Mvo

salma3

0 | 0

8.4 ГБ

В этой теме нет новых непрочитанных сообщений. Змея в тени орла / Se ying diu sau [Комедия, приключения, боевик, 1978] BDRip-HEVC 1080p, Mvo

salma3

0 | 0

5.18 ГБ

В этой теме нет новых непрочитанных сообщений. Хэллоуин / Halloween [Ужасы, триллер, 1978] BDRip-HEVC 1080p, Mvo

salma3

0 | 0

5.88 ГБ

В этой теме нет новых непрочитанных сообщений. Аквамен / Aquaman [Фантастика, фэнтези, боевик, 2018] WEBRip 1080p, Mvo

salma3

0 | 0

4.36 ГБ

В этой теме нет новых непрочитанных сообщений. Ограбление Бринкса / The Brink's Job [Комедия, криминал, 1978] BDRip 1080p, Mvo

salma3

0 | 0

9.93 ГБ


Начать новую тему Ответить на тему  [ 1 сообщение ] 




Для Мосгорсуда, Роскомнадзора и рекламодателей:: rstracker[собака]yandex.ru
cron