Торрент файл
скачать торрент магнет ссылка Добавлен: 14 янв 2020, 05:18
Размер: 8.55 ГБ
Сидеров: 0
Личеров: 0
Статус: (salma3)
Автор

СообщениеДобавлено: 14 янв 2020, 05:18 

Не в сети
Супермодератор
Аватара пользователя
Дата регистрации:
15 фев 2012, 16:44
Возраст: 30
Спасибо: 8156 / 2148
Сообщения: 95342
Год выхода: 1999
Жанр: боевик, драма, мелодрама
Режиссер: Джон Г. Эвилдсен

В ролях: Жан-Клод Ван Дамм, Пэт Морита, Дэнни Трехо, Гэбриэлль Фицпатрик, Ларри Дрэйк, Винсент Скьявелли, Дэвид Фралик, Сайлас Уэйр Митчелл, Джонатан Эвилдсен, Джейми Прессли

О фильме:
Эдди Ломакс - одинокий воин, утративший веру в себя. Поиски старого друга - одинокого индейца-шамана - приводят его в разрушенный город с адским названием Инферно, где у Эдди много врагов. Полная луна и зов койота помогут ему обрести былую силу и осуществить благородную цель: защитить местных жителей от жестоких банд байкеров и контрабандистов.



Выпущено: США
Продолжительность: 01:34:57
Перевод: Профессиональный (многоголосый закадровый) РТР/РЕН ТВ
Перевод 2: Профессиональный (двухголосый закадровый) Андрей Градов и Ирина Маликова
Перевод 3: Авторский (одноголосый закадровый) Юрий Живов
Перевод 4: Авторский (одноголосый закадровый) Юрий Сербин
Перевод 5: Авторский (одноголосый закадровый) Сергей Визгунов
Субтитры: английские

Файл
Кодек: x264
Качество: BDRip 1080p
Видео: MPEG-4 AVC, 1920x1080 (16:9), 24 fps, 10500 kbps, 0.211 bit/pixel
Аудио: Russian, AC3 2.0 / 48 kHz / 192 kbps [MVO]
Аудио 2: Russian, AC3 2.0 / 48 kHz / 192 kbps [DVO]
Аудио 3: Russian, AAC 2.0 / 44,1 kHz / 192 kbps [Живов]
Аудио 4: Russian, AC3 2.0 / 48 kHz / 192 kbps [Сербин]
Аудио 5: Russian, AC3 2.0 / 48 kHz / 192 kbps [Визгунов]
Аудио 6: English, DTS 2.0 / 48 kHz / 1509 kbps [Original]
Формат субтитров: softsub (SRT)
Общее
Уникальный идентификатор : 170207393913071493467397912142992550291 (0x800CC06D66B4F3BAB6DC4435C36EA993)
Полное имя : K:Inferno.1999.BDRip.1080p.mkv
Формат : Matroska
Версия формата : Version 4 / Version 2
Размер файла : 8,55 Гбайт
Продолжительность : 1 ч. 34 м.
Общий поток : 12,9 Мбит/сек
Название фильма : Инферно / Inferno (1999)
Дата кодирования : UTC 2018-04-22 05:40:29
Программа кодирования : mkvmerge v6.5.0 ('Isn't she lovely') built on Oct 20 2013 12:50:05
Библиотека кодирования : libebml v1.3.0 + libmatroska v1.4.1
Обложка : Yes
Attachments : Cover.png

Видео
Идентификатор : 1
Формат : AVC
Формат/Информация : Advanced Video Codec
Профиль формата : High@L4.1
Настройки формата : CABAC / 4 Ref Frames
Параметр CABAC формата : Да
Параметр RefFrames формата : 4 кадра
Идентификатор кодека : V_MPEG4/ISO/AVC
Продолжительность : 1 ч. 34 м.
Номинальный битрейт : 10,5 Мбит/сек
Ширина : 1920 пикселей
Высота : 1080 пикселей
Соотношение сторон : 16:9
Режим частоты кадров : Постоянный
Частота кадров : 24,000 кадра/сек
Цветовое пространство : YUV
Субдискретизация насыщенности : 4:2:0
Битовая глубина : 8 бит
Тип развёртки : Прогрессивная
Бит/(Пиксели*Кадры) : 0.211
Заголовок : Release by N1NT3NDO
Библиотека кодирования : x264 core 130 r2273 b3065e6
Настройки программы : cabac=1 / ref=4 / deblock=1:-3:-3 / analyse=0x3:0x113 / me=umh / subme=10 / psy=1 / psy_rd=1.00:0.00 / mixed_ref=1 / me_range=32 / chroma_me=1 / trellis=2 / 8x8dct=1 / cqm=0 / deadzone=21,11 / fast_pskip=0 / chroma_qp_offset=-2 / threads=12 / lookahead_threads=1 / sliced_threads=0 / nr=0 / decimate=0 / interlaced=0 / bluray_compat=0 / constrained_intra=0 / bframes=5 / b_pyramid=2 / b_adapt=2 / b_bias=0 / direct=2 / weightb=1 / open_gop=0 / weightp=2 / keyint=240 / keyint_min=24 / scenecut=40 / intra_refresh=0 / rc_lookahead=80 / rc=2pass / mbtree=1 / bitrate=10481 / ratetol=1.0 / qcomp=0.60 / qpmin=0 / qpmax=69 / qpstep=4 / cplxblur=20.0 / qblur=0.5 / ip_ratio=1.40 / aq=1:0.70
Язык : English
Default : Да
Forced : Нет

Аудио #1
Идентификатор : 2
Формат : AC-3
Формат/Информация : Audio Coding 3
Идентификатор кодека : A_AC3
Продолжительность : 1 ч. 34 м.
Вид битрейта : Постоянный
Битрейт : 192 Кбит/сек
Каналы : 2 канала
Расположение каналов : Front: L R
Частота : 48,0 КГц
Частота кадров : 31,250 кадров/сек (1536 SPF)
Битовая глубина : 16 бит
Метод сжатия : С потерями
Размер потока : 130 Мбайт (1%)
Заголовок : MVO (РТР)
Язык : Russian
ServiceKind/String : Complete Main
Default : Да
Forced : Нет

Аудио #2
Идентификатор : 3
Формат : AC-3
Формат/Информация : Audio Coding 3
Идентификатор кодека : A_AC3
Продолжительность : 1 ч. 34 м.
Вид битрейта : Постоянный
Битрейт : 192 Кбит/сек
Каналы : 2 канала
Расположение каналов : Front: L R
Частота : 48,0 КГц
Частота кадров : 31,250 кадров/сек (1536 SPF)
Битовая глубина : 16 бит
Метод сжатия : С потерями
Размер потока : 130 Мбайт (1%)
Заголовок : DVO (Андрей Градов и Ирина Маликова)
Язык : Russian
ServiceKind/String : Complete Main
Default : Нет
Forced : Нет

Аудио #3
Идентификатор : 4
Формат : AAC
Формат/Информация : Advanced Audio Codec
Профиль формата : LC
Идентификатор кодека : A_AAC-2
Продолжительность : 1 ч. 34 м.
Каналы : 2 канала
Расположение каналов : Front: L R
Частота : 44,1 КГц
Частота кадров : 43,066 кадра/сек (1024 SPF)
Метод сжатия : С потерями
Заголовок : AVO (Юрий Живов)
Язык : Russian
Default : Нет
Forced : Нет

Аудио #4
Идентификатор : 5
Формат : AC-3
Формат/Информация : Audio Coding 3
Идентификатор кодека : A_AC3
Продолжительность : 1 ч. 34 м.
Вид битрейта : Постоянный
Битрейт : 192 Кбит/сек
Каналы : 2 канала
Расположение каналов : Front: L R
Частота : 48,0 КГц
Частота кадров : 31,250 кадров/сек (1536 SPF)
Битовая глубина : 16 бит
Метод сжатия : С потерями
Размер потока : 130 Мбайт (1%)
Заголовок : AVO (Юрий Сербин)
Язык : Russian
ServiceKind/String : Complete Main
Default : Нет
Forced : Нет

Аудио #5
Идентификатор : 6
Формат : AC-3
Формат/Информация : Audio Coding 3
Идентификатор кодека : A_AC3
Продолжительность : 1 ч. 34 м.
Вид битрейта : Постоянный
Битрейт : 192 Кбит/сек
Каналы : 2 канала
Расположение каналов : Front: L R
Частота : 48,0 КГц
Частота кадров : 31,250 кадров/сек (1536 SPF)
Битовая глубина : 16 бит
Метод сжатия : С потерями
Размер потока : 130 Мбайт (1%)
Заголовок : AVO (Сергей Визгунов)
Язык : Russian
ServiceKind/String : Complete Main
Default : Нет
Forced : Нет

Аудио #6
Идентификатор : 7
Формат : DTS
Формат/Информация : Digital Theater Systems
Идентификатор кодека : A_DTS
Продолжительность : 1 ч. 34 м.
Вид битрейта : Постоянный
Битрейт : 1509 Кбит/сек
Каналы : 2 канала
Расположение каналов : Front: L R
Частота : 48,0 КГц
Частота кадров : 93,750 кадра/сек (512 SPF)
Битовая глубина : 24 бит
Метод сжатия : С потерями
Размер потока : 1,00 Гбайт (12%)
Заголовок : DTS 2.0 @ 1509 kbps - Original
Язык : English
Default : Нет
Forced : Нет

Текст
Идентификатор : 8
Формат : UTF-8
Идентификатор кодека : S_TEXT/UTF8
Идентификатор кодека/Информация : UTF-8 Plain Text
Заголовок : Eng
Язык : English
Default : Нет
Forced : Нет

Меню
00:00:00.000 : :Chapter 01
00:08:14.208 : :Chapter 02
00:16:51.708 : :Chapter 03
00:24:17.333 : :Chapter 04
00:35:18.666 : :Chapter 05
00:41:43.125 : :Chapter 06
00:50:51.833 : :Chapter 07
00:58:19.708 : :Chapter 08
01:05:47.708 : :Chapter 09
01:14:26.707 : :Chapter 10
01:21:56.875 : :Chapter 11
01:28:39.000 : :Chapter 12




_________________
Проголосуй за трекер Открытый торрент трекер - RUS-MEDIA.ORG

Проголосуй Открытый торрент трекер - RUS-MEDIA.ORG


Скачать книги и аудио книги через торрент


Вернуться к началу
 Профиль Отправить личное сообщение  
 
   Похожие торренты   Автор   Торрент   Размер 
В этой теме нет новых непрочитанных сообщений. Инферно / Inferno [боевик, драма, мелодрама, 1999] HDRip-AVC, Mvo

salma3

0 | 0

744.36 МБ

В этой теме нет новых непрочитанных сообщений. Инферно / Inferno [боевик, драма, 1999] BDRip 720p, Dub

salma3

0 | 0

2.8 ГБ

В этой теме нет новых непрочитанных сообщений. Инферно / Inferno [боевик, триллер, драма, 2016] BDRip, Dub [лицензия]

salma3

500 | 33

2.18 ГБ

В этой теме нет новых непрочитанных сообщений. Инферно / Inferno [боевик, триллер, драма, 2016] BDRip 720p, Dub [iPad] [Лицензия]

salma3

146 | 28

2.91 ГБ

В этой теме нет новых непрочитанных сообщений. Инферно / Inferno [Боевик, триллер, драма, 2016] DVD5, Dub

salma3

57 | 34

4.38 ГБ

В этой теме нет новых непрочитанных сообщений. Ярды / The Yards [триллер, драма, мелодрама, 1999] BDRip 1080p, Mvo

salma3

2 | 0

8.61 ГБ

В этой теме нет новых непрочитанных сообщений. Club Inferno / Клуб Инферно (Patrick Collins, Elegant Angel) [2003 г., Anal, All Sex, Oral, DP, Facials, MILF, Gonzo, Threesomes, VOD]

salma3

2 | 1

1.28 ГБ


Начать новую тему Ответить на тему  [ 1 сообщение ] 




Для Мосгорсуда, Роскомнадзора и рекламодателей:: mosgorsud-torrent[собачка]yandex.ru
cron