Торрент файл
скачать торрент магнет ссылка Добавлен: 12 янв 2020, 10:44
Размер: 7.76 ГБ
Сидеров: 0
Личеров: 0
Статус: (salma3)
Автор

СообщениеДобавлено: 12 янв 2020, 10:44 

Не в сети
Супермодератор
Аватара пользователя
Дата регистрации:
15 фев 2012, 16:44
Возраст: 32
Спасибо: 8325 / 2148
Сообщения: 97229
Год выпуска: 2013
Жанр: драма, военный
Режиссер: Брайан Персивал

В ролях: Софи Нелисс, Джеффри Раш, Эмили Уотсон, Роджер Аллам, Хайке Макатч, Джулиан Леманн, Готард Ланге, Райнер Рейнерс, Керстен Блок, Нико Лирш

О фильме:
Германия, начало 1939 года, канун Второй мировой войны. Смерть готовится начать свою жатву. Девятилетняя Лизель переезжает в Мюнхен к своим приемным родителям и с их помощью учится читать. С каждым днем чтение становится ее жизненной потребностью, и Лизель начинает воровать книги — единственную отраду ее жизни. Все, что она узнает из них, помогает ей понять события, происходящие вокруг нее — гонение на евреев, антифашистское движение, унижения и голод. Все это, в конце концов, сложится в ее собственную историю, историю ее жизни.



Выпущено: США, Германия
Продолжительность: 02:11:00
Перевод: Дублированный + Оригинал

Файл
Кодек: x264
Качество: BDRip 1080p
Видео: 1920x800, 7587 Kbps, 23.976 fps
Аудио #1: AC-3, 6 ch, 448 kbps (Rus)
Аудио #2: AC-3, 6 ch, 448 kbps (Eng)
Субтитры: русские (полные, форсированные), английские

Общее
Уникальный идентификатор : 179353136818046919696802592739376906085 (0x86EE285DD50B082B9312A655A01E3F65)
Полное имя : Воровка книг.2013.BDRip.1080p.Rus.Eng.mkv
Формат : Matroska
Версия формата : Version 2
Размер файла : 7,76 Гбайт
Продолжительность : 2 ч. 10 м.
Общий поток : 8476 Кбит/сек
Название фильма : Воровка книг.2013
Дата кодирования : UTC 2014-03-01 17:23:07
Программа кодирования : mkvmerge v5.8.0 ('No Sleep / Pillow') built on Sep 2 2012 15:37:04
Библиотека кодирования : libebml v1.2.3 + libmatroska v1.3.0

Видео
Идентификатор : 1
Формат : AVC
Формат/Информация : Advanced Video Codec
Профиль формата : High@L4.1
Параметр CABAC формата : Да
Параметр ReFrames формата : 5 кадров
Идентификатор кодека : V_MPEG4/ISO/AVC
Продолжительность : 2 ч. 10 м.
Битрейт : 7587 Кбит/сек
Ширина : 1920 пикселей
Высота : 800 пикселей
Соотношение сторон : 2,40:1
Режим частоты кадров : Постоянный
Частота кадров : 23,976 кадра/сек
Цветовое пространство : YUV
Субдискретизация насыщенности : 4:2:0
Битовая глубина : 8 бит
Тип развёртки : Прогрессивная
Бит/(Пиксели*Кадры) : 0.206
Размер потока : 6,78 Гбайт (87%)
Заголовок : Rip by Boriy
Библиотека кодирования : x264 core 142 r2389 956c8d8
Настройки программы : cabac=1 / ref=5 / deblock=1:-3:-3 / analyse=0x3:0x113 / me=umh / subme=11 / psy=1 / psy_rd=1.00:0.00 / mixed_ref=1 / me_range=32 / chroma_me=1 / trellis=2 / 8x8dct=1 / cqm=0 / deadzone=21,11 / fast_pskip=0 / chroma_qp_offset=-2 / threads=12 / lookahead_threads=1 / sliced_threads=0 / nr=0 / decimate=0 / interlaced=0 / bluray_compat=0 / constrained_intra=0 / bframes=6 / b_pyramid=2 / b_adapt=2 / b_bias=0 / direct=3 / weightb=1 / open_gop=0 / weightp=2 / keyint=240 / keyint_min=23 / scenecut=40 / intra_refresh=0 / rc=2pass / mbtree=0 / bitrate=7587 / ratetol=1.0 / qcomp=0.60 / qpmin=0 / qpmax=69 / qpstep=4 / cplxblur=20.0 / qblur=0.5 / ip_ratio=1.40 / pb_ratio=1.30 / aq=1:0.80
Язык : English
Default : Да
Forced : Нет

Аудио #1
Идентификатор : 2
Формат : AC-3
Формат/Информация : Audio Coding 3
Расширение режима : CM (complete main)
Параметр Endianness формата : Big
Идентификатор кодека : A_AC3
Продолжительность : 2 ч. 10 м.
Вид битрейта : Постоянный
Битрейт : 448 Кбит/сек
Каналы : 6 каналов
Расположение каналов : Front: L C R, Side: L R, LFE
Частота : 48,0 КГц
Битовая глубина : 16 бит
Метод сжатия : С потерями
Размер потока : 420 Мбайт (5%)
Заголовок : Дубляж
Язык : Russian
Default : Да
Forced : Нет

Аудио #2
Идентификатор : 3
Формат : AC-3
Формат/Информация : Audio Coding 3
Расширение режима : CM (complete main)
Параметр Endianness формата : Big
Идентификатор кодека : A_AC3
Продолжительность : 2 ч. 10 м.
Вид битрейта : Постоянный
Битрейт : 448 Кбит/сек
Каналы : 6 каналов
Расположение каналов : Front: L C R, Side: L R, LFE
Частота : 48,0 КГц
Битовая глубина : 16 бит
Метод сжатия : С потерями
Размер потока : 420 Мбайт (5%)
Заголовок : Оригинал
Язык : English
Default : Нет
Forced : Нет

Текст #1
Идентификатор : 4
Формат : UTF-8
Идентификатор кодека : S_TEXT/UTF8
Идентификатор кодека/Информация : UTF-8 Plain Text
Заголовок : Forced
Язык : Russian
Default : Да
Forced : Да

Текст #2
Идентификатор : 5
Формат : UTF-8
Идентификатор кодека : S_TEXT/UTF8
Идентификатор кодека/Информация : UTF-8 Plain Text
Заголовок : Full
Язык : Russian
Default : Нет
Forced : Нет

Текст #3
Идентификатор : 6
Формат : UTF-8
Идентификатор кодека : S_TEXT/UTF8
Идентификатор кодека/Информация : UTF-8 Plain Text
Заголовок : Full
Язык : English
Default : Нет
Forced : Нет

Меню
00:00:00.000 : :Chapter 1
00:03:50.230 : :Chapter 2
00:07:58.060 : :Chapter 3
00:10:27.126 : :Chapter 4
00:13:42.404 : :Chapter 5
00:17:54.948 : :Chapter 6
00:20:17.591 : :Chapter 7
00:23:01.380 : :Chapter 8
00:24:57.746 : :Chapter 9
00:26:58.158 : :Chapter 10
00:30:54.811 : :Chapter 11
00:34:01.164 : :Chapter 12
00:39:21.859 : :Chapter 13
00:43:00.869 : :Chapter 14
00:45:09.998 : :Chapter 15
00:50:59.055 : :Chapter 16
00:52:18.760 : :Chapter 17
00:54:55.709 : :Chapter 18
00:59:04.624 : :Chapter 19
01:02:16.232 : :Chapter 20
01:05:43.522 : :Chapter 21
01:08:20.513 : :Chapter 22
01:12:41.982 : :Chapter 23
01:18:14.856 : :Chapter 24
01:23:50.025 : :Chapter 25
01:27:59.399 : :Chapter 26
01:30:46.274 : :Chapter 27
01:36:25.404 : :Chapter 28
01:40:48.584 : :Chapter 29
01:43:54.811 : :Chapter 30
01:47:24.104 : :Chapter 31
01:49:38.405 : :Chapter 32
01:54:24.274 : :Chapter 33
02:02:10.948 : :Chapter 34
02:03:13.386 : :Chapter 35
02:05:21.514 : :Chapter 36
x264 [info]: frame I:1467 Avg QP:16.82 size:236260
x264 [info]: frame P:35880 Avg QP:19.23 size: 80147
x264 [info]: frame B:151103 Avg QP:21.65 size: 27949


_________________
Проголосуй за трекер Открытый торрент трекер - RUS-MEDIA.ORG

Проголосуй Открытый торрент трекер - RUS-MEDIA.ORG


Вернуться к началу
 Профиль Отправить личное сообщение  
 
   Похожие торренты   Автор   Торрент   Размер 
В этой теме нет новых непрочитанных сообщений. Клуб любителей книг и пирогов из картофельных очистков / The Guernsey Literary and Potato Peel Pie Society [Драма, мелодрама, история, 2018] BDRip 1080p, Dub [iTunes]

salma3

0 | 0

9.26 ГБ

В этой теме нет новых непрочитанных сообщений. Царь Скорпионов: Книга Душ / The Scorpion King: Book of Souls [Фэнтези, боевик, приключения, 2018] BDRip 1080p, Dub

salma3

3 | 9

7.79 ГБ

В этой теме нет новых непрочитанных сообщений. Спартак / Spartacus [Драма, приключения, военный, 1960] BDRip 1080p, Dub [Restored Edition]

salma3

0 | 0

27.68 ГБ

В этой теме нет новых непрочитанных сообщений. Жанна Д'Арк / The Messenger: The Story of Joan of Arc [драма, приключения, военный, 1999] BDRip 1080p, Dub

salma3

30 | 24

7.76 ГБ

В этой теме нет новых непрочитанных сообщений. Честный вор / Honest Thief [Боевик, триллер, криминал, 2020] BDRip, Dub [iTunes]

salma3

286 | 8

1.41 ГБ

В этой теме нет новых непрочитанных сообщений. Клуб любителей книг и пирогов из картофельных очистков / The Guernsey Literary and Potato Peel Pie Society [Драма, мелодрама, история, 2018] BDRip, Dub [iTunes]

salma3

1 | 0

1.45 ГБ

В этой теме нет новых непрочитанных сообщений. Клуб любителей книг и пирогов из картофельных очистков / The Guernsey Literary and Potato Peel Pie Society [Драма, мелодрама, история, 2018] BDRip, Dub [iTunes]

K15

3 | 3

2.13 ГБ


Начать новую тему Ответить на тему  [ 1 сообщение ] 




Для Мосгорсуда, Роскомнадзора и рекламодателей:: rstracker[собака]yandex.ru
cron