Торрент файл
скачать торрент магнет ссылка Добавлен: 04 янв 2020, 21:23
Размер: 10.23 ГБ
Сидеров: 2
Личеров: 1
Статус: (salma3)
Автор

СообщениеДобавлено: 04 янв 2020, 21:23 

Не в сети
Супермодератор
Аватара пользователя
Дата регистрации:
15 фев 2012, 16:44
Возраст: 32
Спасибо: 8325 / 2148
Сообщения: 97229
Год выхода: 2015
Жанр: комедия
Режиссер: Сет МакФарлейн

В ролях: Марк Уолберг, Сет МакФарлейн, Аманда Сайфред, Джованни Рибизи, Джон Слэттери, Морган Фриман, Джессика Барт, Сэм Дж. Джонс, Патрик Варбертон, Майкл Дорн

О фильме:
Плюшевый беспредельщик продолжает сводить с ума чопорную интеллигенцию. На этот раз говорящий медвежонок с большим эго и его длинноногая блондинка решили завести ребёнка. Там, где не постаралась природа, на помощь приходят звёздные доноры, городские сумасшедшие и верный друг Джонни. Он только что расстался с Лори и готов к новым авантюрам. Третий здесь совсем не лишний.



Страна: США
Продолжительность: 01:55:46
Перевод: Профессиональный (полное дублирование), Авторский (одноголосый закадровый)

Файл
Формат: MKV
Качество: WEB-DL 1080p
Видео: 1920x1080, 23.976 fps, MPEG-4 AVC, 9672 kb/s
Аудио 1: Russian: 48 kHz, AC3, 6 ch, ~640 kbps avg - DUB со вставками Есарева
Аудио 2: Russian: 48 kHz, DTS, 6 ch, ~1509 kbps avg - AVO Есарев
Аудио 3: Ukrainian: 48 kHz, AC3, 2 ch, ~192 kbps avg - DUB
Аудио 4: English: 48 kHz, E-AC3, 6 ch, ~640 kbps avg
Субтитры: русские (forced, full), английские

General
Unique ID : 234014006092264546019315837876648033770 (0xB00D754AE2AB565A84D5A1D541E43DEA)
Complete name : D:Ted.2.2015.Theatrical.Cut.Open.Matte.1080p.WEB-DL.mkv
Format : Matroska
Format version : Version 4
File size : 10.2 GiB
Duration : 1 h 55 min
Overall bit rate mode : Variable
Overall bit rate : 12.6 Mb/s
Encoded date : UTC 2020-01-02 18:36:47
Writing application : mkvmerge v8.3.0 ('Over the Horizon') 32bit
Writing library : libebml v1.3.1 + libmatroska v1.4.2

Video
ID : 1
Format : AVC
Format/Info : Advanced Video Codec
Format profile : High@L4
Format settings : CABAC / 4 Ref Frames
Format settings, CABAC : Yes
Format settings, Reference : 4 frames
Codec ID : V_MPEG4/ISO/AVC
Duration : 1 h 55 min
Bit rate mode : Variable
Bit rate : 9 672 kb/s
Maximum bit rate : 15.0 Mb/s
Width : 1 920 pixels
Height : 1 080 pixels
Display aspect ratio : 16:9
Frame rate mode : Constant
Frame rate : 23.976 (24000/1001) FPS
Color space : YUV
Chroma subsampling : 4:2:0
Bit depth : 8 bits
Scan type : Progressive
Bits/(Pixel*Frame) : 0.195
Stream size : 7.82 GiB (76%)
Language : English
Default : Yes
Forced : No
Color range : Limited
Color primaries : BT.709
Transfer characteristics : BT.709
Matrix coefficients : BT.709

Audio #1
ID : 2
Format : AC-3
Format/Info : Audio Coding 3
Commercial name : Dolby Digital
Codec ID : A_AC3
Duration : 1 h 55 min
Bit rate mode : Constant
Bit rate : 640 kb/s
Channel(s) : 6 channels
Channel layout : L R C LFE Ls Rs
Sampling rate : 48.0 kHz
Frame rate : 31.250 FPS (1536 SPF)
Bit depth : 16 bits
Compression mode : Lossy
Stream size : 530 MiB (5%)
Title : DUB
Language : Russian
Service kind : Complete Main
Default : Yes
Forced : No

Audio #2
ID : 3
Format : DTS
Format/Info : Digital Theater Systems
Codec ID : A_DTS
Duration : 1 h 55 min
Bit rate mode : Constant
Bit rate : 1 510 kb/s
Channel(s) : 6 channels
Channel layout : C L R Ls Rs LFE
Sampling rate : 48.0 kHz
Frame rate : 93.750 FPS (512 SPF)
Bit depth : 24 bits
Compression mode : Lossy
Stream size : 1.22 GiB (12%)
Title : AVO - Д.Есарев
Language : Russian
Default : No
Forced : No

Audio #3
ID : 4
Format : AC-3
Format/Info : Audio Coding 3
Commercial name : Dolby Digital
Codec ID : A_AC3
Duration : 1 h 55 min
Bit rate mode : Constant
Bit rate : 192 kb/s
Channel(s) : 2 channels
Channel layout : L R
Sampling rate : 48.0 kHz
Frame rate : 31.250 FPS (1536 SPF)
Bit depth : 16 bits
Compression mode : Lossy
Stream size : 159 MiB (2%)
Title : DUB - Ukrainian
Language : Ukrainian
Service kind : Complete Main
Default : No
Forced : No

Audio #4
ID : 5
Format : E-AC-3
Format/Info : Enhanced AC-3
Commercial name : Dolby Digital Plus
Codec ID : A_EAC3
Duration : 1 h 55 min
Bit rate mode : Constant
Bit rate : 640 kb/s
Channel(s) : 6 channels
Channel layout : L R C LFE Ls Rs
Sampling rate : 48.0 kHz
Frame rate : 31.250 FPS (1536 SPF)
Compression mode : Lossy
Stream size : 530 MiB (5%)
Language : English
Service kind : Complete Main
Default : No
Forced : No

Text #1
ID : 6
Format : UTF-8
Codec ID : S_TEXT/UTF8
Codec ID/Info : UTF-8 Plain Text
Duration : 1 h 33 min
Bit rate : 1 b/s
Count of elements : 20
Stream size : 1.05 KiB (0%)
Title : Forced
Language : Russian
Default : Yes
Forced : No

Text #2
ID : 7
Format : UTF-8
Codec ID : S_TEXT/UTF8
Codec ID/Info : UTF-8 Plain Text
Duration : 1 h 47 min
Bit rate : 123 b/s
Count of elements : 1935
Stream size : 97.4 KiB (0%)
Title : full
Language : Russian
Default : No
Forced : No

Text #3
ID : 8
Format : UTF-8
Codec ID : S_TEXT/UTF8
Codec ID/Info : UTF-8 Plain Text
Duration : 1 h 47 min
Bit rate : 88 b/s
Count of elements : 2060
Stream size : 70.3 KiB (0%)
Language : English
Default : No
Forced : No




_________________
Проголосуй за трекер Открытый торрент трекер - RUS-MEDIA.ORG

Проголосуй Открытый торрент трекер - RUS-MEDIA.ORG


Вернуться к началу
 Профиль Отправить личное сообщение  
 
   Похожие торренты   Автор   Торрент   Размер 
В этой теме нет новых непрочитанных сообщений. Очень страшное кино / Scary Movie [комедия, пародия, 2000] WEB-DL 1080p, Dub [Open Matte]

salma3

7 | 0

10.11 ГБ

В этой теме нет новых непрочитанных сообщений. Уличный боец / Street Fighter [фантастика, боевик, комедия, 1994] WEB-DL 1080p, Dub [Open Matte]

salma3

0 | 0

11.75 ГБ

В этой теме нет новых непрочитанных сообщений. Американский пирог 3: Свадьба / American Wedding [мелодрама, комедия, 2003] WEB-DL 1080p, Dub [Open Matte] [Театральная версия]

salma3

0 | 0

10.04 ГБ

В этой теме нет новых непрочитанных сообщений. Сокровище нации: Книга Тайн / National Treasure: Book of Secrets [боевик, комедия, приключения, 2007] WEB-DL 1080p, Dub [Open Matte]

salma3

0 | 0

11.75 ГБ

В этой теме нет новых непрочитанных сообщений. 500 дней лета / (500) Days of Summer [мелодрама, комедия, 2009] WEB-DL 1080p, Dub [Open Matte]

salma3

18 | 2

8.8 ГБ

В этой теме нет новых непрочитанных сообщений. Хостел / Hostel [ужасы, триллер, 2005] WEB-DL 1080p, Dub [Open Matte]

salma3

0 | 0

11.07 ГБ

В этой теме нет новых непрочитанных сообщений. Волк-одиночка / Cry Wolf [триллер, 2005] WEB-DL 1080p, Dub [Open Matte]

salma3

0 | 0

6.82 ГБ


Начать новую тему Ответить на тему  [ 1 сообщение ] 




Для Мосгорсуда, Роскомнадзора и рекламодателей:: rstracker[собака]yandex.ru
cron