Торрент файл
скачать торрент магнет ссылка Добавлен: 21 дек 2019, 21:03
Размер: 8.17 ГБ
Сидеров: 0
Личеров: 0
Статус: (salma3)
Автор

СообщениеДобавлено: 21 дек 2019, 21:03 

Не в сети
Супермодератор
Аватара пользователя
Дата регистрации:
15 фев 2012, 16:44
Возраст: 33
Спасибо: 8328 / 2148
Сообщения: 97250
Год выхода: 2002
Жанр: триллер, драма, военный
Режиссер: Кэтрин Бигелоу

В ролях: Харрисон Форд, Питер Сарсгаард, Лиам Нисон, Сэм Спруэлл, Питер Стеббингс, Кристиан Камарго, Роман Подхора, Сэм Редфорд, Стив Николсон, Равиль Исянов

О фильме: Фильм основан на реальных событиях, произошедших с первой атомной советской подводной лодкой, которая потерпела аварию из-за неполадок в атомном реакторе в 1961 году. К-19 — это зримое свидетельство героизма русских моряков, которые служили на этой подводной лодке. Фильм демонстрирует героизм капитана Алексея Вострикова, который в разгар холодной войны берет на себя командование атомной подводной лодкой К-19 вместо ее первого капитана Михаила Поленина. Миссия Вострикова — быстро подготовить подлодку к погружению, чего бы это ни стоило. Но Востриков, Поленин и члены экипажа К-19 не могли себе вообразить всего, что от них ожидалось. Они не могли представить, какой ценой обойдется для них стремительность подготовки субмарины к погружению…



Страна: Великобритания, Германия, Канада, США
Продолжительность: 02:18:05
Перевод: Дублированный, Авторский (одноголосый закадровый)

Файл
Кодек: h.264
Качество: BDRip 720р
Видео: MPEG-4 AVC, 4779 Кбит/с, 1280x546, 23.976 кадр/с
Аудио#1: Russian: 48 kHz, AC3, 3/2 (L,C,R,l,r) + LFE ch, ~448.00 kbps avg |Дубляж|
Аудио#2: Russian: 48 kHz, DTS, 3/2 (L,C,R,l,r) + LFE ch, ~1536.00 kbps avg |Одноголосый закадровый, Ю.Живов|
Аудио#3: English: 48 kHz, DTS, 3/2 (L,C,R,l,r) + LFE ch, ~1536.00 kbps avg
Аудио#4: English: 48 kHz, AC3, 2/0 (L,R) ch, ~224.00 kbps avg |Director's Commentary|

***
Раздача от Andrew Placid
Сохранены и подписаны оригинальные чаптеры как на Blu-ray.
Дорожка #2 получена наложением чистого голоса на центр декодированного Dolby TrueHD. За чистый голос Ю.Живова большое спасибо DaRkY!

Format : Matroska
Format version : Version 2
File size : 8,17 Гбайт
Duration : 2 ч. 18 м.
Overall bit rate : 8469 Кбит/сек
Movie name : K-19: The Widowmaker (2002) - Release for HDCLUB by -= Andrew Placid =-
Encoded date : UTC 2010-05-16 14:01:01
Writing application : mkvmerge v3.3.0 ('Language') built on Mar 24 2010 14:59:24
Writing library : libebml v0.8.0 + libmatroska v0.9.0

Видео
ID : 1
Format : AVC
Format/Info : Advanced Video Codec
Format profile : High@L4.1
Format settings : CABAC / 11 Ref Frames
Format settings, CABAC : Да
Format settings, Reference frames : 11 кадров
Codec ID : V_MPEG4/ISO/AVC
Duration : 2 ч. 18 м.
Bit rate : 4779 Кбит/сек
Width : 1280 пикселей
Height : 546 пикселей
Display aspect ratio : 2,35:1
Frame rate mode : Постоянный
Frame rate : 23,976 (24000/1001) кадра/сек
Color space : YUV
Chroma subsampling : 4:2:0
Bit depth : 8 бит
Scan type : Прогрессивная
Bits/(Pixel*Frame) : 0.285
Stream size : 4,45 Гбайт (54%)
Title : Release for HDCLUB by -= Andrew Placid =-
Writing library : x264 core 94 r1564kMod a927654
Encoding settings : cabac=1 / ref=11 / deblock=1:-3:-3 / analyse=0x3:0x113 / me=umh / subme=10 / psy=1 / psy_rd=0.80:0.05 / mixed_ref=1 / me_range=48 / chroma_me=1 / trellis=2 / 8x8dct=1 / cqm=0 / deadzone=21,11 / fast_pskip=0 / chroma_qp_offset=-3 / threads=6 / sliced_threads=0 / nr=0 / decimate=0 / interlaced=0 / constrained_intra=0 / bframes=12 / b_pyramid=2 / b_adapt=2 / b_bias=0 / direct=3 / wpredb=1 / wpredp=2 / keyint=250 / keyint_min=25 / scenecut=40 / intra_refresh=0 / rc=2pass / mbtree=0 / bitrate=4779 / ratetol=1.0 / qcomp=0.60 / qpmin=10 / qpmax=51 / qpstep=4 / cplxblur=20.0 / qblur=0.5 / ip_ratio=1.40 / pb_ratio=1.30 / aq=1:0.60
Language : English
Default : Нет
Forced : Нет

Аудио #1
ID : 2
Format : AC-3
Format/Info : Audio Coding 3
Commercial name : Dolby Digital
Codec ID : A_AC3
Duration : 2 ч. 18 м.
Bit rate mode : Постоянный
Bit rate : 448 Кбит/сек
Channel(s) : 6 каналов
Channel layout : L R C LFE Ls Rs
Sampling rate : 48,0 КГц
Frame rate : 31,250 кадров/сек (1536 SPF)
Bit depth : 16 бит
Compression mode : С потерями
Stream size : 443 Мбайт (5%)
Title : AC3 5.1ch 448 kbps [Дубляж]
Language : Russian
Service kind : Complete Main
Default : Да
Forced : Нет

Аудио #2
ID : 3
Format : DTS
Format/Info : Digital Theater Systems
Codec ID : A_DTS
Duration : 2 ч. 18 м.
Bit rate mode : Постоянный
Bit rate : 1510 Кбит/сек
Channel(s) : 6 каналов
Channel layout : C L R Ls Rs LFE
Sampling rate : 48,0 КГц
Frame rate : 93,750 кадра/сек (512 SPF)
Bit depth : 24 бит
Compression mode : С потерями
Stream size : 1,46 Гбайт (18%)
Title : DTS 5.1ch 1536 kbps [Одноголосый, Ю.Живов]
Language : Russian
Default : Нет
Forced : Нет

Аудио #3
ID : 4
Format : DTS
Format/Info : Digital Theater Systems
Codec ID : A_DTS
Duration : 2 ч. 18 м.
Bit rate mode : Постоянный
Bit rate : 1509 Кбит/сек
Channel(s) : 6 каналов
Channel layout : C L R Ls Rs LFE
Sampling rate : 48,0 КГц
Frame rate : 93,750 кадра/сек (512 SPF)
Bit depth : 24 бит
Compression mode : С потерями
Stream size : 1,46 Гбайт (18%)
Title : DTS 5.1ch 1536 kbps [Оригинал]
Language : English
Default : Нет
Forced : Нет

Аудио #4
ID : 5
Format : AC-3
Format/Info : Audio Coding 3
Commercial name : Dolby Digital
Codec ID : A_AC3
Duration : 2 ч. 18 м.
Bit rate mode : Постоянный
Bit rate : 224 Кбит/сек
Channel(s) : 2 канала
Channel layout : L R
Sampling rate : 48,0 КГц
Frame rate : 31,250 кадров/сек (1536 SPF)
Bit depth : 16 бит
Compression mode : С потерями
Stream size : 221 Мбайт (3%)
Title : AC3 2.0ch 192 kbps [Комментарии]
Language : English
Service kind : Complete Main
Default : Нет
Forced : Нет

Текст #1
ID : 6
Format : UTF-8
Codec ID : S_TEXT/UTF8
Codec ID/Info : UTF-8 Plain Text
Language : Russian
Default : Нет
Forced : Нет

Текст #2
ID : 7
Format : UTF-8
Codec ID : S_TEXT/UTF8
Codec ID/Info : UTF-8 Plain Text
Language : English
Default : Нет
Forced : Нет

Меню
00:00:00.000 : en:The Captain of K-19
00:09:01.416 : en:A Cursed Boat
00:23:28.449 : en:Ready for Sea
00:30:02.968 : en:Start the Drill Again
00:36:44.994 : en:Crush Depth
00:44:42.847 : en:The Test Missile
00:49:55.242 : en:Message From Moscow
00:56:44.901 : en:Loss of Pressure
01:03:18.253 : en:Containment Measures
01:09:37.840 : en:Inside the Reactor
01:26:18.215 : en:Radiation Poisoning
01:35:12.790 : en:Traitors
01:45:33.994 : en:A Hero
01:54:40.165 : en:Loyal to the Motherland
02:03:27.317 : en:Reunion
02:09:20.670 : en:Credits



_________________
Проголосуй за трекер Открытый торрент трекер - RUS-MEDIA.ORG

Проголосуй Открытый торрент трекер - RUS-MEDIA.ORG


Вернуться к началу
 Профиль Отправить личное сообщение  
 
   Похожие торренты   Автор   Торрент   Размер 
В этой теме нет новых непрочитанных сообщений. Первый рыцарь / First Knight [драма, мелодрама, приключения, 1995] BDRip 720р, Dub

salma3

0 | 0

4.36 ГБ

В этой теме нет новых непрочитанных сообщений. Ложное искушение / The Good Shepherd [Триллер, драма, 2006] BDRip 720р, Mvo [Режиссёрская версия]

salma3

0 | 0

7.1 ГБ

В этой теме нет новых непрочитанных сообщений. Призраки войны / Ghosts of War [Ужасы, триллер, военный, 2020] BDRip, Dub [iTunes]

salma3

1 | 0

1.46 ГБ

В этой теме нет новых непрочитанных сообщений. Уроки фарси / Persian Lessons [Драма, военный, 2020] BDRip, Dub [iTunes]

salma3

5 | 1

2.13 ГБ

В этой теме нет новых непрочитанных сообщений. Уроки фарси / Persian Lessons [Драма, военный, 2020] BDRip, Dub [iTunes]

salma3

0 | 0

1.46 ГБ

В этой теме нет новых непрочитанных сообщений. Спартак / Spartacus [Драма, приключения, военный, 1960] BDRip 1080p, Dub [Restored Edition]

salma3

0 | 0

27.68 ГБ

В этой теме нет новых непрочитанных сообщений. Прослушка / The Wire [S01-05] [триллер, драма, криминал, 2002-2008] BDRip, Mvo [FoxCrime]

salma3

0 | 0

54.86 ГБ


Начать новую тему Ответить на тему  [ 1 сообщение ] 




Для Мосгорсуда, Роскомнадзора и рекламодателей:: rstracker[собака]yandex.ru
cron