Торрент файл
скачать торрент магнет ссылка Добавлен: 06 дек 2019, 11:54
Размер: 6.61 ГБ
Сидеров: 1
Личеров: 0
Статус: (salma3)
Автор

СообщениеДобавлено: 06 дек 2019, 11:54 

Не в сети
Супермодератор
Аватара пользователя
Дата регистрации:
15 фев 2012, 16:44
Возраст: 33
Спасибо: 8325 / 2148
Сообщения: 97229
Год выпуска: 2008
Выпущено: Канада
Жанр: Ужасы, триллер, экранизация
Режиссер: Паоло Барцман
В ролях: Дугрей Скотт, Криста Бриджес, Том Скерритт

О фильме:
Молодой адвокат Клэр Уитон получает предложение от очень странного человека. Преуспевающий ученый Генри Джекилл просит защитить его в суде по обвинению в серии убийств. Он утверждает, что что все эти преступления совершило его, вырвавшееся на свободу, темное начало - мистер Эдвард Хайд. Решив, что имеет дело с сумасшедшим, Клэр пытается избавится от ненормального клиента.

Продолжительность: 01:29:08
Перевод: Профессиональный многоголосый
Субтитры: Русские, английские
Навигация по главам: Есть

Файл
Качество: WEB-DL 1080p
Видео: MPEG-4 AVC, 10000 Кбит/сек, 1920x1080, 23,976 кадра/сек
Аудио #1: AC3, 6 ch, 384 Кбит/сек | Русский, профессиональный (многоголосый закадровый)
Аудио #2: EAC3, 6 ch, 256 Кбит/сек | Английский, оригинал



Общее
Уникальный идентификатор : 223322058529835606440939543838379338713 (0xA8024393F6708416B49EAED75F21EBD9)
Полное имя : Доктор.Джекилл.и.мистер.Хайд.2008.WEB-DL.1080p.mkv
Формат : Matroska
Версия формата : Version 2
Размер файла : 6,61 Гбайт
Продолжительность : 1 ч. 29 м.
Общий поток : 10,6 Мбит/сек
Дата кодирования : UTC 2018-04-19 20:44:11
Программа кодирования : mkvmerge v5.8.0 ('No Sleep / Pillow') built on Sep 2 2012 15:37:04
Библиотека кодирования : libebml v1.2.3 + libmatroska v1.3.0

Видео
Идентификатор : 1
Формат : AVC
Формат/Информация : Advanced Video Codec
Профиль формата : High@L4
Настройки формата : CABAC / 4 Ref Frames
Параметр CABAC формата : Да
Параметр RefFrames формата : 4 кадра
Параметр GOP формата : M=4, N=48
Идентификатор кодека : V_MPEG4/ISO/AVC
Продолжительность : 1 ч. 29 м.
Вид битрейта : Постоянный
Битрейт : 10000 Кбит/сек
Ширина : 1920 пикселей
Высота : 1080 пикселей
Соотношение сторон : 16:9
Режим частоты кадров : Постоянный
Частота кадров : 23,976 (24000/1001) кадра/сек
Цветовое пространство : YUV
Субдискретизация насыщенности : 4:2:0
Битовая глубина : 8 бит
Тип развёртки : Прогрессивная
Бит/(Пиксели*Кадры) : 0.201
Размер потока : 6,08 Гбайт (92%)
Язык : English
Default : Да
Forced : Нет
Цветовой диапазон : Limited
Основные цвета : BT.709
Характеристики трансфера : BT.709
Коэффициенты матрицы : BT.709

Аудио #1
Идентификатор : 2
Формат : AC-3
Формат/Информация : Audio Coding 3
Идентификатор кодека : A_AC3
Продолжительность : 1 ч. 29 м.
Вид битрейта : Постоянный
Битрейт : 384 Кбит/сек
Каналы : 6 каналов
Расположение каналов : Front: L C R, Side: L R, LFE
Частота : 48,0 КГц
Частота кадров : 31,250 кадров/сек (1536 SPF)
Битовая глубина : 16 бит
Метод сжатия : С потерями
Размер потока : 245 Мбайт (4%)
Заголовок : MVO
Язык : Russian
По умолчанию : Да
Принудительно : Нет

Аудио #2
Идентификатор : 3
Формат : E-AC-3
Формат/Информация : Enhanced Audio Coding 3
Идентификатор кодека : A_EAC3
Продолжительность : 1 ч. 29 м.
Вид битрейта : Постоянный
Битрейт : 256 Кбит/сек
Каналы : 6 каналов
Расположение каналов : Front: L C R, Side: L R, LFE
Частота : 48,0 КГц
Частота кадров : 187,500 кадров/сек (256 SPF)
Метод сжатия : С потерями
Задержка видео : 10 мс.
Размер потока : 163 Мбайт (2%)
Заголовок : Original
Язык : English
По умолчанию : Нет
Принудительно : Нет

Текст #1
Идентификатор : 4
Формат : UTF-8
Идентификатор кодека : S_TEXT/UTF8
Идентификатор кодека/Информация : UTF-8 Plain Text
Язык : Russian
По умолчанию : Нет
Принудительно : Нет

Текст #2
Идентификатор : 5
Формат : UTF-8
Идентификатор кодека : S_TEXT/UTF8
Идентификатор кодека/Информация : UTF-8 Plain Text
Язык : English
По умолчанию : Нет
Принудительно : Нет

Текст #3
Идентификатор : 6
Формат : UTF-8
Идентификатор кодека : S_TEXT/UTF8
Идентификатор кодека/Информация : UTF-8 Plain Text
Заголовок : SDH
Язык : English
По умолчанию : Нет
Принудительно : Нет

Меню
00:00:00.000 : en:Chapter 01
00:06:56.225 : en:Chapter 02
00:15:11.637 : en:Chapter 03
00:21:41.068 : en:Chapter 04
00:30:44.569 : en:Chapter 05
00:35:01.993 : en:Chapter 06
00:43:20.449 : en:Chapter 07
00:51:18.760 : en:Chapter 08
00:57:49.484 : en:Chapter 09
01:06:17.158 : en:Chapter 10
01:09:51.664 : en:Chapter 11
01:26:33.998 : en:Chapter 12
• Исходник видео WEB-DL Amazon.

Сборка:


_________________
Проголосуй за трекер Открытый торрент трекер - RUS-MEDIA.ORG

Проголосуй Открытый торрент трекер - RUS-MEDIA.ORG


Вернуться к началу
 Профиль Отправить личное сообщение  
 
   Похожие торренты   Автор   Торрент   Размер 
В этой теме нет новых непрочитанных сообщений. Доктор Сон / Doctor Sleep [Ужасы, фэнтези, триллер, 2019] WEB-DL 1080p, Mvo

salma3

33 | 38

7.9 ГБ

В этой теме нет новых непрочитанных сообщений. Переодетые для секса / Специалисты от Таня Хайд / Dressing for Sex / Les Specialistes By Tanya Hyde (2011) DVDRip

zorgi

0 | 0

1.08 ГБ

В этой теме нет новых непрочитанных сообщений. Противостояние / The Stand (Сезон 1 , Серия 1 - 9 из 9) (Джош Бун, Бриджет Палард) [2020,Ужасы, фантастика, фэнтези, триллер, драма, приключения, экранизация,WEB-DLRip - HEVC 10bit - 1080p] [LostFilm +HDRezka + Kravec +TVShows+ Eng]+[Subs R

Враг Нароода

0 | 0

12.93 ГБ

В этой теме нет новых непрочитанных сообщений. Доктор Сон / Doctor Sleep [Ужасы, фэнтези, триллер, 2019] WEB-DLRip, Dub [iTunes] [Театральная версия]

salma3

0 | 0

1.46 ГБ

В этой теме нет новых непрочитанных сообщений. Доктор Сон / Doctor Sleep [Ужасы, фэнтези, триллер, 2019] WEB-DLRip, Dub [iTunes] [Театральная версия]

salma3

28 | 4

2.18 ГБ

В этой теме нет новых непрочитанных сообщений. Страна Лавкрафта / Lovecraft Country (Сезон 1 , Серия 1-10 из 10) (Дэниэл Сакхайм, Ян Деманж) [2020,Триллер, Ужасы,, экранизация,WEB-DLRip - HEVC 10bit - 1080p] [Novamedia+NewStudio+HDRezka Studio+AlexFilm+Eng]+[Subs Rus , ENG]

Враг Нароода

3 | 3

28.86 ГБ

В этой теме нет новых непрочитанных сообщений. Дневник сумасшедшего / Diary of a Madman [Ужасы, триллер, экранизация, 1963] BDRemux 1080p, Dvo

salma3

0 | 0

21.15 ГБ


Начать новую тему Ответить на тему  [ 1 сообщение ] 




Для Мосгорсуда, Роскомнадзора и рекламодателей:: rstracker[собака]yandex.ru
cron