COVID-19 - Последняя информация о коронавирусе на сайте Минздрава




Торрент файл
скачать торрент магнет ссылка Добавлен: 25 ноя 2019, 14:38
Размер: 21.8 ГБ
Сидеров: 0
Личеров: 0
Статус: (salma3)
Автор

СообщениеДобавлено: 25 ноя 2019, 14:38 

Не в сети
Супермодератор
Аватара пользователя
Дата регистрации:
15 фев 2012, 16:44
Возраст: 32
Спасибо: 8298 / 2148
Сообщения: 97020
Информация о фильме
Название: Ю-571
Оригинальное название: U-571
Год выхода: 2000
Жанр: боевик, военный, история
Режиссер: Джонатан Мостоу / Jonathan Mostow
Страна: Франция, США
Студия: Universal Pictures, Canal Plus Image International, Dino De Laurentiis Company
Продолжительность: 01:55:59
Перевод: Профессиональный (дублированный)
В ролях: Мэттью МакКонахи, Билл Пэкстон, Харви Кейтель, Джон Бон Джови, Дэвид Кейт, Томас Кречманн, Джэйк Вебер, Джек Ноузворфи, Том Гуири, Уилл Эстес
О фильме:
1942 год. Немецкие подводные лодки хозяйничают в Атлантике. Радиоперехваты не дают союзникам ничего: сообщения противника не поддаются расшифровке. И тогда американские моряки получают секретное задание: захватить вражескую субмарину U-571 и находящуюся на ее борту шифровальную машину «Энигма». Захватить… и вернуться обратно!

Файл[/b]
Качество: BDRip 1080p / 60 FPS by Cryptor (исходник: BDRemux 1080p)
Формат: MKV
Видео кодек: x264
Аудио кодек: AC3
Видео: AVC, 1920x1080 (16:9), ~25.9 Мбит/с, 60.000 Кадр/с
Аудио#1: AC3 / 5.1 / 48 kHz / 384 kbps / 16 bits | Дублированный [Мосфильм] RUS
Аудио#2: AC3 / 5.1 / 48 kHz / 640 kbps / 16 bits | Оригинал ENG
Субтитры: Russian (Full), English (Full)


General
Unique ID : 193385470824774134166529848898336221824 (0x917CAFD9248C54918A77D080228E6A80)
Complete name : G:TorrentsU-571.(2000).BDRip.1080p.FHD.60FPS.AVC.[Cryptor].mkv
Format : Matroska
Format version : Version 4 / Version 2
File size : 21.8 GiB
Duration : 1 h 55 min
Overall bit rate : 26.9 Mb/s
Movie name : Ю-571 / U-571 (2000)
Encoded date : UTC 2019-11-24 12:29:13
Writing application : mkvmerge v25.0.0 ('Prog Noir') 64-bit
Writing library : libebml v1.3.6 + libmatroska v1.4.9
Cover : Yes
Attachments : Cover.jpg
Video
ID : 1
Format : AVC
Format/Info : Advanced Video Codec
Format profile : High@L4.2
Format settings : CABAC / 4 Ref Frames
Format settings, CABAC : Yes
Format settings, ReFrames : 4 frames
Codec ID : V_MPEG4/ISO/AVC
Duration : 1 h 55 min
Bit rate : 25.9 Mb/s
Width : 1 920 pixels
Height : 1 080 pixels
Display aspect ratio : 16:9
Frame rate mode : Constant
Frame rate : 60.000 FPS
Color space : YUV
Chroma subsampling : 4:2:0
Bit depth : 8 bits
Scan type : Progressive
Bits/(Pixel*Frame) : 0.208
Stream size : 21.0 GiB (96%)
Title : U-571 (2000) - BDRip by Mr.Cryptor
Writing library : x264 core 158 r2984 3759fcb
Encoding settings : cabac=1 / ref=4 / deblock=1:-3:-3 / analyse=0x3:0x133 / me=umh / subme=10 / psy=1 / psy_rd=1.00:0.20 / mixed_ref=1 / me_range=32 / chroma_me=1 / trellis=2 / 8x8dct=1 / cqm=0 / deadzone=21,11 / fast_pskip=0 / chroma_qp_offset=-3 / threads=12 / lookahead_threads=1 / sliced_threads=0 / nr=0 / decimate=1 / interlaced=0 / bluray_compat=0 / constrained_intra=0 / bframes=4 / b_pyramid=2 / b_adapt=2 / b_bias=0 / direct=1 / weightb=1 / open_gop=0 / weightp=2 / keyint=250 / keyint_min=25 / scenecut=40 / intra_refresh=0 / rc_lookahead=60 / rc=crf / mbtree=1 / crf=18.0 / qcomp=0.70 / qpmin=0 / qpmax=69 / qpstep=4 / ip_ratio=1.40 / aq=1:1.00
Language : English
Default : Yes
Forced : No
Color range : Limited
Color primaries : BT.709
Transfer characteristics : BT.709
Matrix coefficients : BT.709
Audio #1
ID : 2
Format : AC-3
Format/Info : Audio Coding 3
Codec ID : A_AC3
Duration : 1 h 55 min
Bit rate mode : Constant
Bit rate : 384 kb/s
Channel(s) : 6 channels
Channel positions : Front: L C R, Side: L R, LFE
Sampling rate : 48.0 kHz
Frame rate : 31.250 FPS (1536 SPF)
Bit depth : 16 bits
Compression mode : Lossy
Stream size : 319 MiB (1%)
Title : Русский - Дублированный [Мосфильм]
Language : Russian
Service kind : Complete Main
Default : Yes
Forced : No
Audio #2
ID : 3
Format : AC-3
Format/Info : Audio Coding 3
Codec ID : A_AC3
Duration : 1 h 55 min
Bit rate mode : Constant
Bit rate : 640 kb/s
Channel(s) : 6 channels
Channel positions : Front: L C R, Side: L R, LFE
Sampling rate : 48.0 kHz
Frame rate : 31.250 FPS (1536 SPF)
Bit depth : 16 bits
Compression mode : Lossy
Stream size : 531 MiB (2%)
Title : Английский [Original]
Language : English
Service kind : Complete Main
Default : No
Forced : No
Text #1
ID : 4
Format : PGS
Muxing mode : zlib
Codec ID : S_HDMV/PGS
Codec ID/Info : Picture based subtitle format used on BDs/HD-DVDs
Duration : 1 h 47 min
Bit rate : 19.5 kb/s
Count of elements : 1624
Stream size : 15.0 MiB (0%)
Title : Русские (Full)
Language : Russian
Default : No
Forced : No
Text #2
ID : 5
Format : PGS
Muxing mode : zlib
Codec ID : S_HDMV/PGS
Codec ID/Info : Picture based subtitle format used on BDs/HD-DVDs
Duration : 1 h 38 min
Bit rate : 20.9 kb/s
Count of elements : 1864
Stream size : 14.7 MiB (0%)
Title : Английские (Full)
Language : English
Default : No
Forced : No



_________________
Проголосуй за трекер Открытый торрент трекер - RUS-MEDIA.ORG

Проголосуй Открытый торрент трекер - RUS-MEDIA.ORG


Скачать книги и аудио книги через торрент


Вернуться к началу
 Профиль Отправить личное сообщение  
 
   Похожие торренты   Автор   Торрент   Размер 
В этой теме нет новых непрочитанных сообщений. Ю-571 / U-571 [Боевик, драма, военный, 2000] HDRip-AVC, Dub [Open Matte]

salma3

30 | 6

746.61 МБ

В этой теме нет новых непрочитанных сообщений. Убрать Картера / Get Carter [Боевик, триллер, драма, 2000] WEB-DL 1080p, Dub [Open Matte]

salma3

0 | 0

11.22 ГБ

В этой теме нет новых непрочитанных сообщений. Черная книга / Zwartboek [Триллер, драма, военный, 2006] BDRip 1080p, Dub [Open Matte]

salma3

0 | 0

13.03 ГБ

В этой теме нет новых непрочитанных сообщений. Клетка / The Cell [ужасы, фантастика, триллер, 2000] Hybrid 1080p, Dub [Open Matte]

salma3

0 | 1

12.77 ГБ

В этой теме нет новых непрочитанных сообщений. Убрать Картера / Get Carter [Боевик, триллер, драма, 2000] WEB-DLRip, Dub [Open Matte]

salma3

16 | 5

1.46 ГБ

В этой теме нет новых непрочитанных сообщений. Аполлон 13 / Apollo 13 [драма, приключения, история, 1995] HybridRip 1080p, Dub [Open Matte]

salma3

0 | 0

15.96 ГБ

В этой теме нет новых непрочитанных сообщений. Очень страшное кино / Scary Movie [комедия, пародия, 2000] WEB-DL 1080p, Dub [Open Matte]

salma3

0 | 0

10.11 ГБ


Начать новую тему Ответить на тему  [ 1 сообщение ] 




Для Мосгорсуда, Роскомнадзора и рекламодателей:: rstracker[собака]yandex.ru
cron