Торрент файл
скачать торрент магнет ссылка Добавлен: 23 ноя 2019, 22:31
Размер: 7.78 ГБ
Сидеров: 0
Личеров: 0
Статус: (salma3)
Автор

СообщениеДобавлено: 23 ноя 2019, 22:31 

Не в сети
Супермодератор
Аватара пользователя
Дата регистрации:
15 фев 2012, 16:44
Возраст: 33
Спасибо: 8325 / 2148
Сообщения: 97229
Год выхода: 1992
Жанр: драма, комедия, семейный
Режиссер: Брайан Левант

В ролях: Чарльз Гродин, Бонни Хант, Дин Джонс, Николь Том, Кристофер Кастиль, Сара Роуз Карр, Оливер Платт, Стэнли Туччи, Дэвид Духовны, Патриша Хитон

О фильме: Герой фильма — не великий композитор, а случайно названный его именем симпатяга-сенбернар. Попав в семью ещё щенком, пёс быстро подружился с детьми и матерью — лишь отец косо поглядывал на беспокойного домочадца.



Страна: США
Продолжительность: 01:27:01
Перевод: дублированный, профессиональный многоголосый, профессиональный двухголосый, авторский одноголосый

Качество: BDRip-HEVC 1080p
Кодек: HEVC (x265)
Видео: 1920x1040 (1,85:1), 9856 кбит/сек, 0.206 бит/(Пиксели*Кадры), 23.976 (24000/1001) кадр/сек, HEVC (Main10@L.4.1@High) 10 бит
Звук:
Аудио1: AC3, 2 ch, 256 Kbps - русский Дублированный (Мосфильм)
Аудио2: AC3, 2 ch, 192 Kbps - русский Многоголосый (1 канал)
Аудио3: AC3, 2 ch, 192 Kbps - русский Многоголосый (НТВ)
Аудио4: AC3, 2 ch, 192 Kbps - русский Многоголосый (СТС)
Аудио5: AC3, 2 ch, 192 Kbps - русский Двухголосый (Премьер-Видео)
Аудио6: AC3, 2 ch, 640 Kbps - русский Авторский (Андрей Дольский)
Аудио7: AC3, 2 ch, 640 Kbps - русский Авторский (Андрей Гаврилов)
Аудио8: AC3, 2 ch, 640 Kbps - english Original
Субтитры: Русские полные (SRT), English full (SRT)
Навигация по главам: Есть

x265 [info]: frame I: 527, Avg QP:17.86 kb/s: 27786.19
x265 [info]: frame P: 27177, Avg QP:19.08 kb/s: 19103.61
x265 [info]: frame B: 97480, Avg QP:21.08 kb/s: 7179.87
x265 [info]: Weighted P-Frames: Y:5.2% UV:4.5%
x265 [info]: Weighted B-Frames: Y:5.4% UV:4.5%
x265 [info]: consecutive B-frames: 2.4% 4.6% 5.9% 46.8% 12.5% 24.4% 1.9% 0.9% 0.2% 0.1% 0.0% 0.1% 0.1%
x265 [info]: encoded 125184 frames in 144624.43s (0.87 fps), 9855.22 kb/s, Avg QP:20.63

Формат : Matroska
Версия формата : Version 4
Размер файла : 7,78 Гбайт
Продолжительность : 1 ч. 27 м.
Общий поток : 12,8 Мбит/сек
Название фильма : Beethoven.1992.BDRemux.1080p.by_vedigo
Дата кодирования : UTC 2019-11-23 09:48:28
Программа кодирования : mkvmerge v40.0.0 ('Old Town Road + Pony') 64-bit
Библиотека кодирования : libebml v1.3.9 + libmatroska v1.5.2

Видео
Идентификатор : 1
Формат : HEVC
Формат/Информация : High Efficiency Video Coding
Профиль формата : Main 10@L4.1@High
Идентификатор кодека : V_MPEGH/ISO/HEVC
Продолжительность : 1 ч. 27 м.
Битрейт : 9856 Кбит/сек
Ширина : 1920 пикселей
Высота : 1040 пикселей
Соотношение сторон : 1,85:1
Режим частоты кадров : Постоянный
Частота кадров : 23,976 (24000/1001) кадра/сек
Цветовое пространство : YUV
Субдискретизация насыщенности : 4:2:0
Битовая глубина : 10 бит
Бит/(Пиксели*Кадры) : 0.206
Размер потока : 5,99 Гбайт (77%)
Заголовок : Beethoven / Rip by OldGamer
Библиотека кодирования : x265 2.9+15-81373aab81df:[Windows][GCC 8.2.0][64 bit] 10bit
Настройки программы : cpuid=1111039 / frame-threads=3 / numa-pools=12 / wpp / no-pmode / no-pme / no-psnr / no-ssim / log-level=2 / input-csp=1 / input-res=1920x1040 / interlace=0 / total-frames=125184 / level-idc=41 / high-tier=1 / uhd-bd=0 / ref=5 / no-allow-non-conformance / no-repeat-headers / annexb / no-aud / no-hrd / info / hash=0 / no-temporal-layers / open-gop / min-keyint=23 / keyint=240 / gop-lookahead=0 / bframes=12 / b-adapt=2 / b-pyramid / bframe-bias=0 / rc-lookahead=80 / lookahead-slices=0 / scenecut=40 / radl=0 / no-splice / no-intra-refresh / ctu=64 / min-cu-size=8 / rect / amp / max-tu-size=32 / tu-inter-depth=4 / tu-intra-depth=4 / limit-tu=1 / rdoq-level=2 / dynamic-rd=0.00 / no-ssim-rd / signhide / no-tskip / nr-intra=0 / nr-inter=0 / no-constrained-intra / no-strong-intra-smoothing / max-merge=5 / limit-refs=3 / limit-modes / me=3 / subme=7 / merange=57 / temporal-mvp / weightp / weightb / no-analyze-src-pics / deblock=-3:-3 / no-sao / no-sao-non-deblock / rd=6 / no-early-skip / rskip / no-fast-intra / no-tskip-fast / no-cu-lossless / b-intra / no-splitrd-skip / rdpenalty=0 / psy-rd=2.00 / psy-rdoq=1.00 / no-rd-refine / no-lossless / cbqpoffs=0 / crqpoffs=0 / rc=crf / crf=19.4 / qcomp=0.60 / qpstep=4 / stats-write=0 / stats-read=0 / vbv-maxrate=50000 / vbv-bufsize=50000 / vbv-init=0.9 / crf-max=0.0 / crf-min=0.0 / ipratio=1.40 / pbratio=1.30 / aq-mode=1 / aq-strength=1.00 / no-cutree / zone-count=1 / zones: / start-frame=119822 / end-frame=125173 / qp=35 / no-strict-cbr / qg-size=32 / no-rc-grain / qpmax=69 / qpmin=0 / no-const-vbv / sar=1 / overscan=0 / videoformat=5 / range=0 / colorprim=2 / transfer=2 / colormatrix=2 / chromaloc=0 / display-window=0 / max-cll=0,0 / min-luma=0 / max-luma=1023 / log2-max-poc-lsb=8 / vui-timing-info / vui-hrd-info / slices=1 / no-opt-qp-pps / no-opt-ref-list-length-pps / no-multi-pass-opt-rps / scenecut-bias=0.00 / no-opt-cu-delta-qp / no-aq-motion / no-hdr / no-hdr-opt / no-dhdr10-opt / no-idr-recovery-sei / analysis-reuse-level=5 / scale-factor=0 / refine-intra=0 / refine-inter=0 / refine-mv=0 / no-limit-sao / ctu-info=0 / no-lowpass-dct / refine-mv-type=0 / copy-pic=1 / max-ausize-factor=1.0 / no-dynamic-refine / no-single-sei
Язык : English
Default : Да
Forced : Нет

Аудио #1
Идентификатор : 2
Формат : AC-3
Формат/Информация : Audio Coding 3
Коммерческое название : Dolby Digital
Идентификатор кодека : A_AC3
Продолжительность : 1 ч. 27 м.
Вид битрейта : Постоянный
Битрейт : 256 Кбит/сек
Каналы : 2 канала
Channel layout : L R
Частота : 48,0 КГц
Частота кадров : 31,250 кадров/сек (1536 SPF)
Битовая глубина : 16 бит
Метод сжатия : С потерями
Размер потока : 159 Мбайт (2%)
Заголовок : Dub (Мосфильм)
Язык : Russian
ServiceKind/ : Complete Main
Default : Да
Forced : Нет

Аудио #2
Идентификатор : 3
Формат : AC-3
Формат/Информация : Audio Coding 3
Коммерческое название : Dolby Digital
Идентификатор кодека : A_AC3
Продолжительность : 1 ч. 27 м.
Вид битрейта : Постоянный
Битрейт : 192 Кбит/сек
Каналы : 2 канала
Channel layout : L R
Частота : 48,0 КГц
Частота кадров : 31,250 кадров/сек (1536 SPF)
Битовая глубина : 16 бит
Метод сжатия : С потерями
Размер потока : 120 Мбайт (1%)
Заголовок : MVO (1 канал)
Язык : Russian
ServiceKind/ : Complete Main
Default : Нет
Forced : Нет

Аудио #3
Идентификатор : 4
Формат : AC-3
Формат/Информация : Audio Coding 3
Коммерческое название : Dolby Digital
Идентификатор кодека : A_AC3
Продолжительность : 1 ч. 27 м.
Вид битрейта : Постоянный
Битрейт : 192 Кбит/сек
Каналы : 2 канала
Channel layout : L R
Частота : 48,0 КГц
Частота кадров : 31,250 кадров/сек (1536 SPF)
Битовая глубина : 16 бит
Метод сжатия : С потерями
Размер потока : 120 Мбайт (1%)
Заголовок : MVO (НТВ)
Язык : Russian
ServiceKind/ : Complete Main
Default : Нет
Forced : Нет

Аудио #4
Идентификатор : 5
Формат : AC-3
Формат/Информация : Audio Coding 3
Коммерческое название : Dolby Digital
Идентификатор кодека : A_AC3
Продолжительность : 1 ч. 27 м.
Вид битрейта : Постоянный
Битрейт : 192 Кбит/сек
Каналы : 2 канала
Channel layout : L R
Частота : 48,0 КГц
Частота кадров : 31,250 кадров/сек (1536 SPF)
Битовая глубина : 16 бит
Метод сжатия : С потерями
Размер потока : 120 Мбайт (1%)
Заголовок : MVO (СТС)
Язык : Russian
ServiceKind/ : Complete Main
Default : Нет
Forced : Нет

Аудио #5
Идентификатор : 6
Формат : AC-3
Формат/Информация : Audio Coding 3
Коммерческое название : Dolby Digital
Идентификатор кодека : A_AC3
Продолжительность : 1 ч. 27 м.
Вид битрейта : Постоянный
Битрейт : 192 Кбит/сек
Каналы : 2 канала
Channel layout : L R
Частота : 48,0 КГц
Частота кадров : 31,250 кадров/сек (1536 SPF)
Битовая глубина : 16 бит
Метод сжатия : С потерями
Размер потока : 120 Мбайт (1%)
Заголовок : DVO (Премьер-Видео)
Язык : Russian
ServiceKind/ : Complete Main
Default : Нет
Forced : Нет

Аудио #6
Идентификатор : 7
Формат : AC-3
Формат/Информация : Audio Coding 3
Коммерческое название : Dolby Digital
Идентификатор кодека : A_AC3
Продолжительность : 1 ч. 27 м.
Вид битрейта : Постоянный
Битрейт : 640 Кбит/сек
Каналы : 2 канала
Channel layout : L R
Частота : 48,0 КГц
Частота кадров : 31,250 кадров/сек (1536 SPF)
Битовая глубина : 16 бит
Метод сжатия : С потерями
Размер потока : 398 Мбайт (5%)
Заголовок : AVO (Андрей Дольский)
Язык : Russian
ServiceKind/ : Complete Main
Default : Нет
Forced : Нет

Аудио #7
Идентификатор : 8
Формат : AC-3
Формат/Информация : Audio Coding 3
Коммерческое название : Dolby Digital
Идентификатор кодека : A_AC3
Продолжительность : 1 ч. 27 м.
Вид битрейта : Постоянный
Битрейт : 640 Кбит/сек
Каналы : 2 канала
Channel layout : L R
Частота : 48,0 КГц
Частота кадров : 31,250 кадров/сек (1536 SPF)
Битовая глубина : 16 бит
Метод сжатия : С потерями
Размер потока : 398 Мбайт (5%)
Заголовок : AVO (Андрей Гаврилов)
Язык : Russian
ServiceKind/ : Complete Main
Default : Нет
Forced : Нет

Аудио #8
Идентификатор : 9
Формат : AC-3
Формат/Информация : Audio Coding 3
Коммерческое название : Dolby Digital
Идентификатор кодека : A_AC3
Продолжительность : 1 ч. 27 м.
Вид битрейта : Постоянный
Битрейт : 640 Кбит/сек
Каналы : 2 канала
Channel layout : L R
Частота : 48,0 КГц
Частота кадров : 31,250 кадров/сек (1536 SPF)
Битовая глубина : 16 бит
Метод сжатия : С потерями
Размер потока : 398 Мбайт (5%)
Заголовок : Original
Язык : English
ServiceKind/ : Complete Main
Default : Нет
Forced : Нет

Текст #1
Идентификатор : 10
Формат : UTF-8
Идентификатор кодека : S_TEXT/UTF8
Идентификатор кодека/Информация : UTF-8 Plain Text
Продолжительность : 1 ч. 22 м.
Битрейт : 107 бит/сек
ElementCount : 924
Размер потока : 65,3 Кбайт (0%)
Заголовок : Subtitle rus
Язык : Russian
Default : Нет
Forced : Нет

Текст #2
Идентификатор : 11
Формат : UTF-8
Идентификатор кодека : S_TEXT/UTF8
Идентификатор кодека/Информация : UTF-8 Plain Text
Продолжительность : 1 ч. 22 м.
Битрейт : 58 бит/сек
ElementCount : 1238
Размер потока : 35,4 Кбайт (0%)
Заголовок : Subtitle eng
Язык : English
Default : Нет
Forced : Нет

Меню
00:00:00.000 : en:00:00:00.000
00:08:36.599 : en:00:08:36.599
00:15:18.835 : en:00:15:18.835
00:16:50.801 : en:00:16:50.801
00:20:01.826 : en:00:20:01.826
00:23:13.475 : en:00:23:13.475
00:27:02.538 : en:00:27:02.538
00:32:58.602 : en:00:32:58.602
00:37:58.026 : en:00:37:58.026
00:42:20.455 : en:00:42:20.455
00:48:24.151 : en:00:48:24.151
00:57:14.973 : en:00:57:14.973
01:00:53.441 : en:01:00:53.441
01:07:56.906 : en:01:07:56.906
01:13:56.766 : en:01:13:56.766
01:22:46.962 : en:01:22:46.962



Автор: OldGamer


_________________
Проголосуй за трекер Открытый торрент трекер - RUS-MEDIA.ORG

Проголосуй Открытый торрент трекер - RUS-MEDIA.ORG


Вернуться к началу
 Профиль Отправить личное сообщение  
 
   Похожие торренты   Автор   Торрент   Размер 
В этой теме нет новых непрочитанных сообщений. Суперсемейка / The Incredibles (Брэд Бёрд) [2004 г., мультфильм, комедия, боевик, приключения, семейный, BDRip-HEVC 1080p] Dub

zorgi

0 | 0

4.91 ГБ

В этой теме нет новых непрочитанных сообщений. Кристофер Робин / Christopher Robin (Марк Форстер) [2018 г., фэнтези, драма, комедия, приключения, семейный, BDRip-HEVC 1080p] D | Лицензия

zorgi

3 | 0

4.67 ГБ

В этой теме нет новых непрочитанных сообщений. Секс по дружбе / Friends With Benefits [Мелодрама, комедия, драма, 2011] BDRip-HEVC 1080p, Dub

salma3

5 | 1

7.01 ГБ

В этой теме нет новых непрочитанных сообщений. Земля до начала времен / The Land Before Time [Мультфильм, приключения, семейный, 1988] BDRip-HEVC 1080p, Dub

salma3

0 | 0

7.69 ГБ

В этой теме нет новых непрочитанных сообщений. ВАЛЛ·И / WALL·E (Эндрю Стэнтон) [2008 г., мультфильм, фантастика, приключения, семейный, BDRip-HEVC 1080p] | Dub | Лицензия | Локализованная версия

zorgi

0 | 1

4.57 ГБ

В этой теме нет новых непрочитанных сообщений. Сестричка, действуй 2 / Sister Act 2: Back in the Habit [комедия, семейный, музыка, 1993] BDRip-HEVC 1080p, Mvo

salma3

4 | 1

8.25 ГБ

В этой теме нет новых непрочитанных сообщений. Диктатор / The Dictator (Ларри Чарльз) [2012 г., комедия, BDRip-HEVC 1080p] Dub

zorgi

8 | 0

3.62 ГБ


Начать новую тему Ответить на тему  [ 1 сообщение ] 




Для Мосгорсуда, Роскомнадзора и рекламодателей:: rstracker[собака]yandex.ru
cron