Торрент файл
скачать торрент магнет ссылка Добавлен: 18 ноя 2019, 13:12
Размер: 10.99 ГБ
Сидеров: 0
Личеров: 0
Статус: (salma3)
Автор

СообщениеДобавлено: 18 ноя 2019, 13:12 

Не в сети
Супермодератор
Аватара пользователя
Дата регистрации:
15 фев 2012, 16:44
Возраст: 33
Спасибо: 8325 / 2148
Сообщения: 97229
Год выхода: 2009
Жанр: Драма, мелодрама, комедия
Режиссер: Ли Хэ-джун

В ролях: Чон Джэ-ён, Чон Рё-вон, Пак Ён-со, Ян Ми-гён, Хон Мин-хи, Чан Со-ён, Ку Гё-хван, Чен-вон Ли, Ли Сан-хун, Сан-иль Ли

О фильме:
Неудачник Ким решает свести счёты с жизнью, бросившись с моста в реку Хан. Он не умеет плавать, так что смерть придёт быстро. Но по нелепой случайности бедолагу выносит на берег небольшого острова, который находится посреди реки. В это же время одна затворница, которая уже не выходит из своей комнаты два года, смотрит из окна и видит мужчину на острове, а рядом надпись HELP.



Страна: Южная Корея
Продолжительность: 01:57:08
Перевод: Любительский [одноголосый]

Файл
Кодек: H.264
Качество: BDRip 1080p
Видео: MPEG-4 AVC, 1920x816, 11000 kbps, 23.976 fps
Звук:
Аудио 1: Russian: 48 kHz, Dolby Digital Audio, 2.0 ch, 192 kbps - Любительский одноголосый закадровый, Александр Райдер
Аудио 2: Korean: 48 kHz, DTS-HD Master Audio, 5.1 ch, 2247 kbps - Оригинал
Субтитры: Английские, PGS

Семпл


Общее
Уникальный идентификатор : 195137451806623994700095456957494283011 (0x92CE1B2DFEC02720B5A6EA66F8794B03)
Полное имя : Робинзон на Луне; Kimssi pyoryugi; Castaway on the Moon (2009) BDRip 1080p L1.mkv
Формат : Matroska
Версия формата : Version 4
Размер файла : 11,0 Гбайт
Продолжительность : 1 ч. 57 м.
Режим общего битрейта : Переменный
Общий поток : 13,4 Мбит/сек
Название фильма : Робинзон на Луне; Kimssi pyoryugi (2009) BDRip 1080p L1
Дата кодирования : UTC 2019-11-17 18:08:34
Программа кодирования : mkvmerge v32.0.0 ('Astral Progressions') 64-bit
Библиотека кодирования : libebml v1.3.7 + libmatroska v1.5.0

Видео
Идентификатор : 1
Формат : AVC
Формат/Информация : Advanced Video Codec
Профиль формата : High@L4.1
Настройки формата : CABAC / 5 Ref Frames
Параметр CABAC формата : Да
Параметр RefFrames формата : 5 кадров
Идентификатор кодека : V_MPEG4/ISO/AVC
Продолжительность : 1 ч. 57 м.
Битрейт : 11,0 Мбит/сек
Ширина : 1920 пикселей
Высота : 816 пикселей
Соотношение сторон : 2,35:1
Режим частоты кадров : Постоянный
Частота кадров : 23,976 (24000/1001) кадра/сек
Цветовое пространство : YUV
Субдискретизация насыщенности : 4:2:0
Битовая глубина : 8 бит
Тип развёртки : Прогрессивная
Бит/(Пиксели*Кадры) : 0.293
Размер потока : 9,00 Гбайт (82%)
Заголовок : MPEG-4 x264@High Profile L4.1, 24/1.001 fps @ 11000 kbps
Библиотека кодирования : x264 core 129 r2245 bc13772
Настройки программы : cabac=1 / ref=5 / deblock=1:-3:-3 / analyse=0x3:0x133 / me=umh / subme=11 / psy=1 / psy_rd=1.00:0.00 / mixed_ref=1 / me_range=32 / chroma_me=1 / trellis=2 / 8x8dct=1 / cqm=0 / deadzone=21,11 / fast_pskip=0 / chroma_qp_offset=-2 / threads=12 / lookahead_threads=2 / sliced_threads=0 / nr=0 / decimate=0 / interlaced=0 / bluray_compat=0 / constrained_intra=0 / bframes=6 / b_pyramid=2 / b_adapt=2 / b_bias=0 / direct=3 / weightb=1 / open_gop=0 / weightp=2 / keyint=240 / keyint_min=23 / scenecut=40 / intra_refresh=0 / rc_lookahead=60 / rc=2pass / mbtree=1 / bitrate=11000 / ratetol=1.0 / qcomp=0.60 / qpmin=0 / qpmax=69 / qpstep=4 / cplxblur=20.0 / qblur=0.5 / vbv_maxrate=45000 / vbv_bufsize=45000 / nal_hrd=none / ip_ratio=1.40 / aq=1:0.60
Язык : English
Default : Да
Forced : Нет

Аудио #1
Идентификатор : 2
Формат : AC-3
Формат/Информация : Audio Coding 3
Коммерческое название : Dolby Digital
Идентификатор кодека : A_AC3
Продолжительность : 1 ч. 56 м.
Вид битрейта : Постоянный
Битрейт : 192 Кбит/сек
Каналы : 2 канала
ChannelLayout : L R
Частота : 48,0 КГц
Частота кадров : 31,250 кадров/сек (1536 SPF)
Метод сжатия : С потерями
Размер потока : 160 Мбайт (1%)
Заголовок : Russian AC-3 2.0 @ 192 kbps
Язык : Russian
ServiceKind : Complete Main
Default : Да
Forced : Нет

Аудио #2
Идентификатор : 3
Формат : DTS XLL
Формат/Информация : Digital Theater Systems
Коммерческое название : DTS-HD Master Audio
Идентификатор кодека : A_DTS
Продолжительность : 1 ч. 56 м.
Вид битрейта : Переменный
Битрейт : 2247 Кбит/сек
Каналы : 6 каналов
ChannelLayout : C L R Ls Rs LFE
Частота : 48,0 КГц
Частота кадров : 93,750 кадра/сек (512 SPF)
Битовая глубина : 16 бит
Метод сжатия : Без потерь
Размер потока : 1,83 Гбайт (17%)
Заголовок : Korean DTS-HD Master Audio 5.1 @ 2247 kbps
Язык : Korean
Default : Нет
Forced : Нет

Текст
Идентификатор : 4
Формат : PGS
Идентификатор кодека : S_HDMV/PGS
Идентификатор кодека/Информация : Picture based subtitle format used on BDs/HD-DVDs
Продолжительность : 1 ч. 50 м.
Битрейт : 10,5 Кбит/сек
ElementCount : 942
Размер потока : 8,30 Мбайт (0%)
Заголовок : Eng/SUP
Язык : English
Default : Нет
Forced : Нет

Меню
00:00:00.000 : en:00:00:00.000
00:04:59.633 : en:00:04:59.633
00:14:10.433 : en:00:14:10.433
00:19:53.025 : en:00:19:53.025
00:27:29.690 : en:00:27:29.690
00:33:44.231 : en:00:33:44.231
00:38:44.113 : en:00:38:44.113
00:46:28.536 : en:00:46:28.536
00:50:42.998 : en:00:50:42.998
00:57:02.628 : en:00:57:02.628
01:06:39.537 : en:01:06:39.537
01:14:40.351 : en:01:14:40.351
01:23:41.642 : en:01:23:41.642
01:31:00.455 : en:01:31:00.455
01:36:22.902 : en:01:36:22.902
01:41:12.316 : en:01:41:12.316
01:44:40.941 : en:01:44:40.941
01:51:43.196 : en:01:51:43.196


  • Видео было скачано с какого то забугорного ресурса 5 лет назад. Приделал к видео русскую дорожкуЭто моя первая раздача, поэтому не судите строго, если где то допустил ошибку. Просто решил поделиться, так как в таком качестве этого фильма нет.

Релиз от: MovieLover666


_________________
Проголосуй за трекер Открытый торрент трекер - RUS-MEDIA.ORG

Проголосуй Открытый торрент трекер - RUS-MEDIA.ORG


Вернуться к началу
 Профиль Отправить личное сообщение  
 
   Похожие торренты   Автор   Торрент   Размер 
В этой теме нет новых непрочитанных сообщений. Песня для Марион / Song for Marion [Драма, Комедия, Мелодрама, 2012] BDRip 1080p, Avo

salma3

0 | 0

6.8 ГБ

В этой теме нет новых непрочитанных сообщений. Бросок в Монте-Карло / Monte Carlo or Bust! [боевик, мелодрама, комедия, 1969] BDRip 1080p, Avo

salma3

0 | 0

8.68 ГБ

В этой теме нет новых непрочитанных сообщений. В погоне за Эми / Chasing Amy [драма, мелодрама, комедия, 1997] BDRemux 1080p, Avo

salma3

0 | 0

19.94 ГБ

В этой теме нет новых непрочитанных сообщений. То, что ты делаешь / That Thing You Do! [драма, комедия, музыка, 1996] BDRip 1080p, Avo [Расширенная версия]

salma3

0 | 0

23.56 ГБ

В этой теме нет новых непрочитанных сообщений. Посредники / Middle Men [драма, комедия, криминал, 2009] BDRip 1080p, Mvo

salma3

0 | 0

9.33 ГБ

В этой теме нет новых непрочитанных сообщений. Глория Белл / Gloria Bell [Драма, мелодрама, комедия, 2018] BDRip 1080p, Mvo [iTunes]

salma3

0 | 0

10.8 ГБ

В этой теме нет новых непрочитанных сообщений. Секс по дружбе / Friends With Benefits [Мелодрама, комедия, драма, 2011] BDRip-HEVC 1080p, Dub

salma3

5 | 1

7.01 ГБ


Начать новую тему Ответить на тему  [ 1 сообщение ] 




Для Мосгорсуда, Роскомнадзора и рекламодателей:: rstracker[собака]yandex.ru
cron