COVID-19 - Последняя информация о коронавирусе на сайте Минздрава




Торрент файл
скачать торрент магнет ссылка Добавлен: 17 ноя 2019, 21:47
Размер: 30.01 ГБ
Сидеров: 0
Личеров: 1
Статус: (salma3)
Автор

СообщениеДобавлено: 17 ноя 2019, 21:47 

Не в сети
Супермодератор
Аватара пользователя
Дата регистрации:
15 фев 2012, 16:44
Возраст: 32
Спасибо: 8298 / 2148
Сообщения: 97035
Год выпуска: 2019
Жанр: Боевик
Режиссер: Рик Роман Во

В ролях: Джерард Батлер, Морган Фримен, Фредерик Шмидт, Дэнни Хьюстон, Рокки Уильямс, Пайпер Перабо, Джада Пинкетт Смит, Гарри Дитсон, Ник Нолти, Лэнс Реддик, Тим Блэйк Нельсон, Крис Браунинг, Екатерина Гусарова, Ори Феффер, Жасмин Хайд, Майкл Лэндис, Марк Арнольд, Керри Шейл, Эндрю Брук, Мартин Берман, Райан Олива, Дерек Сиоу

О фильме:
На президента США совершено покушение, главный обвиняемый — верный ангел-хранитель главы государства и агент секретной службы Майк Бэннинг. Скрываясь от ФБР, он должен найти тех, кто его подставил, и спасти страну и ее лидера от смертельной угрозы.



Страна: США
Продолжительность: 02:01:03
Перевод: Дублированный [iTunes]

Файл
Качество: BDRemux 1080p
Видео: MPEG-4 AVC, 1920x1080, 31.3 Mbit/s, 23.976 fps
Аудио #01: 48 kHz, AC3, 5.1, 384 Kbps | iTunes | RUS
Аудио #02: 48 kHz, TrueHD, 7.1, 3046 Kbps | Оригинал | ENG
Аудио #03: 48 kHz, AC3, 5.1, 640 Kbps | Оригинал | ENG
Субтитры: Русские (Full [Enigma]), английские

General
Unique ID : 55803341845200824931389456060527035404 (0x29FB552C32A33853410F6CFC6302440C)
Complete name : D:Video111Angel.Has.Fallen.2019.D.BDREMUX.1080p.seleZen.mkv
Format : Matroska
Format version : Version 4
File size : 30.0 GiB
Duration : 2 h 1 min
Overall bit rate mode : Variable
Overall bit rate : 35.5 Mb/s
Movie name : Angel Has Fallen 2019 from селезень
Encoded date : UTC 2019-11-17 15:22:19
Writing application : mkvmerge v40.0.0 ('Old Town Road + Pony') 64-bit
Writing library : libebml v1.3.9 + libmatroska v1.5.2

Video
ID : 1
Format : AVC
Format/Info : Advanced Video Codec
Format profile : High@L4.1
Format settings : CABAC / 4 Ref Frames
Format settings, CABAC : Yes
Format settings, Reference : 4 frames
Codec ID : V_MPEG4/ISO/AVC
Duration : 2 h 1 min
Bit rate mode : Variable
Bit rate : 31.3 Mb/s
Maximum bit rate : 37.0 Mb/s
Width : 1 920 pixels
Height : 1 080 pixels
Display aspect ratio : 16:9
Frame rate mode : Constant
Frame rate : 23.976 (24000/1001) FPS
Color space : YUV
Chroma subsampling : 4:2:0
Bit depth : 8 bits
Scan type : Progressive
Bits/(Pixel*Frame) : 0.631
Stream size : 26.5 GiB (88%)
Language : English
Default : Yes
Forced : No

Audio #1
ID : 2
Format : AC-3
Format/Info : Audio Coding 3
Commercial name : Dolby Digital
Codec ID : A_AC3
Duration : 2 h 1 min
Bit rate mode : Constant
Bit rate : 384 kb/s
Channel(s) : 6 channels
Channel layout : L R C LFE Ls Rs
Sampling rate : 48.0 kHz
Frame rate : 31.250 FPS (1536 SPF)
Bit depth : 16 bits
Compression mode : Lossy
Stream size : 332 MiB (1%)
Title : iTunes
Language : Russian
Service kind : Complete Main
Default : Yes
Forced : Yes

Audio #2
ID : 3
Format : MLP FBA 16-ch
Format/Info : Meridian Lossless Packing FBA with 16-channel presentation
Commercial name : Dolby TrueHD with Dolby Atmos
Codec ID : A_TRUEHD
Duration : 2 h 1 min
Bit rate mode : Variable
Bit rate : 3 046 kb/s
Maximum bit rate : 4 485 kb/s
Channel(s) : 8 channels
Channel layout : L R C LFE Ls Rs Lb Rb
Sampling rate : 48.0 kHz
Frame rate : 1 200.000 FPS (40 SPF)
Compression mode : Lossless
Stream size : 2.58 GiB (9%)
Title : Original
Language : English
Default : No
Forced : No
Number of dynamic objects : 11
Bed channel count : 1 channel
Bed channel configuration : LFE

Audio #3
ID : 4
Format : AC-3
Format/Info : Audio Coding 3
Commercial name : Dolby Digital
Codec ID : A_AC3
Duration : 2 h 1 min
Bit rate mode : Constant
Bit rate : 640 kb/s
Channel(s) : 6 channels
Channel layout : L R C LFE Ls Rs
Sampling rate : 48.0 kHz
Frame rate : 31.250 FPS (1536 SPF)
Bit depth : 16 bits
Compression mode : Lossy
Stream size : 554 MiB (2%)
Language : English
Service kind : Complete Main
Default : No
Forced : No

Text #1
ID : 5
Format : UTF-8
Codec ID : S_TEXT/UTF8
Codec ID/Info : UTF-8 Plain Text
Duration : 1 h 52 min
Bit rate : 98 b/s
Count of elements : 1454
Stream size : 81.6 KiB (0%)
Title : Full [Enigma]
Language : Russian
Default : No
Forced : No

Text #2
ID : 6
Format : UTF-8
Codec ID : S_TEXT/UTF8
Codec ID/Info : UTF-8 Plain Text
Duration : 1 h 51 min
Bit rate : 58 b/s
Count of elements : 1452
Stream size : 47.3 KiB (0%)
Title : Full
Language : English
Default : No
Forced : No

Menu
00:00:00.000 : en:Глава 01
00:06:48.950 : en:Глава 02
00:15:08.157 : en:Глава 03
00:23:13.809 : en:Глава 04
00:28:35.714 : en:Глава 05
00:39:39.627 : en:Глава 06
00:45:33.564 : en:Глава 07
00:50:56.053 : en:Глава 08
00:59:23.393 : en:Глава 09
01:06:50.882 : en:Глава 10
01:16:25.873 : en:Глава 11
01:24:11.046 : en:Глава 12
01:30:14.409 : en:Глава 13
01:37:42.064 : en:Глава 14
01:44:54.538 : en:Глава 15
01:51:08.120 : en:Глава 16
M2TS, 1 video track, 4 audio tracks, 6 subtitle tracks, 2:01:02, 24p /1.001
1: Chapters, 16 chapters
2: h264/AVC, 1080p24 /1.001 (16:9)
3: TrueHD/AC3 (Atmos), English, 7.1 channels, 48kHz, dialnorm: -30dB
(embedded: AC3 EX, 5.1 channels, 448kbps, 48kHz, dialnorm: -30dB)
4: AC3, English, 2.0 channels, 192kbps, 48kHz, dialnorm: -29dB
5: AC3, Spanish, 5.1 channels, 448kbps, 48kHz, dialnorm: -29dB
6: AC3, English, 5.1 channels, 448kbps, 48kHz, dialnorm: -29dB
7: Subtitle (PGS), English
8: Subtitle (PGS), Spanish
9: Subtitle (PGS), Chinese
10: Subtitle (PGS), Chinese
11: Subtitle (PGS), Chinese
12: Subtitle (PGS), Chinese
Creating file "00503 - Chapters.txt"...
[a03] AC3 encoding doesn't support back channels. Will mix them into the surround.
[s07] Extracting subtitle track number 7...
[s11] Extracting subtitle track number 11...
[a03] Extracting audio track number 3...
[a03] Extracting audio track number 3...
[s09] Extracting subtitle track number 9...
[s10] Extracting subtitle track number 10...
[s08] Extracting subtitle track number 8...
[s12] Extracting subtitle track number 12...
[a04] Extracting audio track number 4...
[a06] Extracting audio track number 6...
[a05] Extracting audio track number 5...
[v02] Extracting video track number 2...
[a03] Extracting TrueHD stream...
[a03] Extracting TrueHD stream...
[a03] Decoding with libav/ffmpeg...
[a03] Mixing surround channels...
[a03] Remapping channels...
[a03] Encoding AC3 with libAften...
[v02] Creating file "00503 - 2 - h264, 1080p24.h264"...
[a03] Creating file "00503 - 3 - TrueHD+AC3 (Atmos), English, 7.1 channels, 48kHz.thd+ac3"...
[a06] Creating file "00503 - 6 - AC3, English, 5.1 channels, 448kbps, 48kHz.ac3"...
[a05] Creating file "00503 - 5 - AC3, Spanish, 5.1 channels, 448kbps, 48kHz.ac3"...
[a04] Creating file "00503 - 4 - AC3, English, 2.0 channels, 192kbps, 48kHz.ac3"...
[s07] Creating file "00503 - 7 - Subtitle (PGS), English.sup"...
[s11] Creating file "00503 - 11 - Subtitle (PGS), Chinese.sup"...
[s12] Creating file "00503 - 12 - Subtitle (PGS), Chinese.sup"...
[s08] Creating file "00503 - 8 - Subtitle (PGS), Spanish.sup"...
[a03] Skipping identical AC3 frames (seamless branching)...
[a03] Skipping identical AC3 frames (seamless branching)...
[a06] Skipping identical AC3 frames (seamless branching)...
[a05] Skipping identical AC3 frames (seamless branching)...
[a04] Skipping identical AC3 frames (seamless branching)...
[s10] Creating file "00503 - 10 - Subtitle (PGS), Chinese.sup"...
[s09] Creating file "00503 - 9 - Subtitle (PGS), Chinese.sup"...
[a03] Original audio track, L+R+C+BL+BR+SL+SR: max 24 bits, average 18 bits.
[a03] Original audio track, LFE: constant bit depth of 16 bits.
[a03] Processed audio track, L+R+C+SL+SR: max 24 bits, average 18 bits.
[a03] Processed audio track, LFE: constant bit depth of 16 bits.
Video track 2 contains 174145 frames.
Subtitle track 7 contains 1545 captions.
Subtitle track 8 contains 1346 normal and 11 forced captions.
Subtitle track 9 contains 1386 captions.
Subtitle track 10 contains 1386 captions.
Subtitle track 11 contains 1386 captions.
Subtitle track 12 contains 1386 captions.
eac3to processing took 8 minutes, 39 seconds.
Done.


Релиз от:


_________________
Проголосуй за трекер Открытый торрент трекер - RUS-MEDIA.ORG

Проголосуй Открытый торрент трекер - RUS-MEDIA.ORG


Скачать книги и аудио книги через торрент


Вернуться к началу
 Профиль Отправить личное сообщение  
 
   Похожие торренты   Автор   Торрент   Размер 
В этой теме нет новых непрочитанных сообщений. Падение ангела / Angel Has Fallen [Боевик, 2019] WEB-DL 1080p, Dub [iTunes]

salma3

2732 | 316

4.18 ГБ

В этой теме нет новых непрочитанных сообщений. Падение ангела / Angel Has Fallen [Боевик, 2019] HDRip, Dub [iTunes]

salma3

0 | 0

1.46 ГБ

В этой теме нет новых непрочитанных сообщений. Падение ангела / Angel Has Fallen [Боевик, 2019] BDRip, Dub [iTunes]

salma3

0 | 0

2.13 ГБ

В этой теме нет новых непрочитанных сообщений. Падение ангела / Angel Has Fallen [Боевик, 2019] WEB-DL 720p, Dub [iTunes]

salma3

0 | 0

3.76 ГБ

В этой теме нет новых непрочитанных сообщений. Падение ангела / Angel Has Fallen [Боевик, 2019] WEB-DLRip, Dub [iTunes]

salma3

2912 | 423

1.46 ГБ

В этой теме нет новых непрочитанных сообщений. Падение ангела / Angel Has Fallen [Боевик, 2019] HDRip-AVC, Dub [iTunes]

salma3

0 | 0

2.43 ГБ

В этой теме нет новых непрочитанных сообщений. Падение ангела / Angel Has Fallen [Боевик, 2019] WEB-DLRip-AVC, Dub [iTunes]

salma3

2 | 2

2.15 ГБ


Начать новую тему Ответить на тему  [ 1 сообщение ] 




Для Мосгорсуда, Роскомнадзора и рекламодателей:: rstracker[собака]yandex.ru
cron