Торрент файл
скачать торрент магнет ссылка Добавлен: 15 ноя 2019, 12:01
Размер: 3.59 ГБ
Сидеров: 0
Личеров: 0
Статус: (salma3)
Автор

СообщениеДобавлено: 15 ноя 2019, 12:01 

Не в сети
Супермодератор
Аватара пользователя
Дата регистрации:
15 фев 2012, 16:44
Возраст: 32
Спасибо: 8325 / 2148
Сообщения: 97229
Год выхода: 2019
Жанр: Фэнтези, драма, приключения
Режиссер: Аск Хассельбальх

В ролях: Ребекка Эмили Саттруп, Агнес Киттелсен, Якоб Офтебро, Эллан Хайд, Николас Бро, Сёрен Маллинг, Деян Чукич, Андерс Хове, Эбигейл Райс, Стина Экблад

О фильме:
От своих родителей Дина унаследовала сверхъестественный дар — способность распознавать правду по первому взгляду на человека. Будучи ещё ребёнком, с помощью своего таланта она расследовала убийство целой королевской семьи. В продолжении истории Дина встречает таинственного незнакомца, который называет себя Чёрным Мастером и пытается убедить девушку, что является её отцом. Она не верит ни единому его слову и всеми способами старается избегать встречи с ним. Но в скором времени Дина вынуждена просить помощи Чёрного Мастера, и они отправляются вместе в опасное путешествие, чтобы спасти Давина, брата девушки, и принца Нико от кровожадного Дракана.



Страна: Дания, Чехия
Продолжительность: 01:43:24
Перевод:Профессиональный (полное дублирование)[iTunes]

Файл
Качество: WEB-DL 1080p
Видео: 1920x802 (2.40:1), 24 fps, MPEG-4 AVC ~ 4580 Kbps avg, 0.124 bit/pixel
Аудио: AC3, 48 kHz, 6 ch, ~384.00 kbps avg | русский | iTunes

Общее
Уникальный идентификатор : 90808099854141497684248739343683034603 (0x445100FDA32D446160EE271C4EB41DEB)
Полное имя : G:TorrentsFilesSD II SLANGENS_GAVE (2019) WEB-DL 1080p-KAZTORKA.mkv
Формат : Matroska
Версия формата : Version 4 / Version 2
Размер файла : 3,59 Гбайт
Продолжительность : 1 ч. 43 м.
Общий поток : 4966 Кбит/сек
Название фильма : SD II: SLANGENS_GAVE (2019) WEB-DL 1080p-KAZTORKA
Дата кодирования : UTC 2019-11-13 20:01:24
Программа кодирования : mkvmerge v38.0.0 ('The Silent Type') 64-bit
Библиотека кодирования : libebml v1.3.9 + libmatroska v1.5.2
Обложка : Yes
Attachments : cover.jpg

Видео
Идентификатор : 1
Формат : AVC
Формат/Информация : Advanced Video Codec
Профиль формата : High@L4
Настройки формата : CABAC / 5 Ref Frames
Параметр CABAC формата : Да
Параметр RefFrames формата : 5 кадров
Идентификатор кодека : V_MPEG4/ISO/AVC
Продолжительность : 1 ч. 43 м.
Битрейт : 4580 Кбит/сек
Ширина : 1920 пикселей
Высота : 802 пикселя
Соотношение сторон : 2,40:1
Режим частоты кадров : Постоянный
Частота кадров : 24,000 кадра/сек
Цветовое пространство : YUV
Субдискретизация насыщенности : 4:2:0
Битовая глубина : 8 бит
Тип развёртки : Прогрессивная
Бит/(Пиксели*Кадры) : 0.124
Размер потока : 3,31 Гбайт (92%)
Заголовок : SD II: SLANGENS_GAVE (2019) WEB-DL 1080p-KAZTORKA
Язык : English
Default : Да
Forced : Нет
Цветовой диапазон : Limited
Основные цвета : BT.709
Характеристики трансфера : BT.709
Коэффициенты матрицы : BT.709

Аудио
Идентификатор : 2
Формат : AC-3
Формат/Информация : Audio Coding 3
Идентификатор кодека : A_AC3
Продолжительность : 1 ч. 43 м.
Вид битрейта : Постоянный
Битрейт : 384 Кбит/сек
Каналы : 6 каналов
Расположение каналов : Front: L C R, Side: L R, LFE
Частота : 48,0 КГц
Частота кадров : 31,250 кадров/сек (1536 SPF)
Битовая глубина : 16 бит
Метод сжатия : С потерями
Задержка видео : -42 мс.
Размер потока : 284 Мбайт (8%)
Заголовок : iTunes | SD II: SLANGENS_GAVE (2019) WEB-DL 1080p-KAZTORKA
Язык : Russian
Default : Да
Forced : Нет

Меню
00:00:00.000 : en:Глава 1
00:08:15.541 : en:Глава 2
00:16:38.207 : en:Глава 3
00:25:13.164 : en:Глава 4
00:33:53.747 : en:Глава 5
00:42:55.038 : en:Глава 6
00:52:42.579 : en:Глава 7
01:01:30.662 : en:Глава 8
01:10:26.494 : en:Глава 9
01:18:50.201 : en:Глава 10
01:27:07.076 : en:Глава 11
01:35:11.533 : en:Глава 12


_________________
Проголосуй за трекер Открытый торрент трекер - RUS-MEDIA.ORG

Проголосуй Открытый торрент трекер - RUS-MEDIA.ORG


Вернуться к началу
 Профиль Отправить личное сообщение  
 
   Похожие торренты   Автор   Торрент   Размер 
В этой теме нет новых непрочитанных сообщений. Пробуждающая совесть 2: Дар змеи / Skammerens datter II: Slangens gave [Фэнтези, драма, приключения, 2019] WEB-DLRip, Dub [iTunes]

salma3

0 | 0

744.03 МБ

В этой теме нет новых непрочитанных сообщений. Пробуждающая совесть 2: Дар змеи / Skammerens datter II: Slangens gave [Фэнтези, драма, приключения, 2019] WEB-DLRip, Dub [iTunes]

salma3

0 | 0

1.46 ГБ

В этой теме нет новых непрочитанных сообщений. Пробуждающая совесть 2: Дар змеи / Skammerens datter II: Slangens gave [Фэнтези, драма, приключения, 2019] WEB-DLRip-AVC, Dub [iTunes]

salma3

0 | 0

745.51 МБ

В этой теме нет новых непрочитанных сообщений. Пробуждающая совесть / Skammerens datter [Приключения, фэнтези, 2015] BDRip, Dub [iTunes]

salma3

835 | 64

1.46 ГБ

В этой теме нет новых непрочитанных сообщений. Аладдин / Aladdin [Мюзикл, фэнтези, приключения, 2019] BDRip 1080p, Dub [iTunes]

salma3

2 | 4

12.8 ГБ

В этой теме нет новых непрочитанных сообщений. Аладдин / Aladdin [Мюзикл, фэнтези, приключения, 2019] BDRip 1080p, Dub [iTunes]

salma3

0 | 0

15.1 ГБ

В этой теме нет новых непрочитанных сообщений. Райские холмы / Paradise Hills [Фэнтези, 2019] WEB-DL 1080p, Dub [iTunes]

salma3

44 | 7

6.27 ГБ


Начать новую тему Ответить на тему  [ 1 сообщение ] 




Для Мосгорсуда, Роскомнадзора и рекламодателей:: rstracker[собака]yandex.ru
cron