COVID-19 - Последняя информация о коронавирусе на сайте Минздрава




Торрент файл
скачать торрент магнет ссылка Добавлен: 10 ноя 2019, 12:32
Размер: 10.01 ГБ
Сидеров: 0
Личеров: 0
Статус: (salma3)
Автор

СообщениеДобавлено: 10 ноя 2019, 12:32 

Не в сети
Супермодератор
Аватара пользователя
Дата регистрации:
15 фев 2012, 16:44
Возраст: 31
Спасибо: 8280 / 2148
Сообщения: 96711
Год выхода: 2010
Жанр: фантастика, боевик, приключения
Режиссер: Джон Фавро

В ролях: Роберт Дауни мл., Микки Рурк, Гвинет Пэлтроу, Дон Чидл, Сэм Рокуэлл, Скарлетт Йоханссон, Кларк Грегг, Сэмюэл Л. Джексон, Джон Слэттери, Гарри Шендлинг

О фильме: Прошло полгода с тех пор, как мир узнал, что миллиардер-изобретатель Тони Старк является обладателем уникальной кибер-брони Железного человека. Общественность требует, чтобы Старк передал технологию брони правительству США, но Тони не хочет разглашать её секреты, потому что боится, что она попадёт не в те руки. Между тем Иван Ванко — сын русского учёного, когда-то работавшего на фирму Старка, но потом уволенного и лишенного всего, намерен отомстить Тони за беды своей семьи. Для чего сооружает своё высокотехнологичное оружие.



Страна: США
Продолжительность: 02:04:38
Перевод: дублированный

Качество: BDRip-HEVC 1080p
Кодек: HEVC (x265)
Видео: 1920x816 (2,35:1), 10,2 мбит/сек, 0.272 бит/(Пиксели*Кадры), 23.976 (24000/1001) кадр/сек, HEVC (Main10@L.4.1@High) 10 бит
Звук:
Аудио1: AC3, 6 ch, 640 Kbps - русский Дублированный
Аудио2: AC3, 6 ch, 640 Kbps - english Original
Субтитры: Русские форсированные и полные (SRT), English full (SRT)
Навигация по главам: Есть

x265 [info]: frame I: 759, Avg QP:17.64 kb/s: 21290.64
x265 [info]: frame P: 32437, Avg QP:19.37 kb/s: 15573.13
x265 [info]: frame B: 146101, Avg QP:20.94 kb/s: 8962.54
x265 [info]: Weighted P-Frames: Y:7.5% UV:6.2%
x265 [info]: Weighted B-Frames: Y:8.5% UV:6.6%
x265 [info]: consecutive B-frames: 8.9% 5.4% 12.4% 19.8% 9.9% 17.5% 5.8% 6.7% 3.5% 2.7% 1.9% 1.8% 0.8% 0.8% 0.6% 0.6% 0.8%
x265 [info]: encoded 179297 frames in 172804.30s (1.04 fps), 10210.67 kb/s, Avg QP:20.64

Формат : Matroska
Версия формата : Version 4
Размер файла : 10,0 Гбайт
Продолжительность : 2 ч. 4 м.
Общий поток : 11,5 Мбит/сек
Название фильма : Iron.Man.2.2010.BDRemux.1080p
Дата кодирования : UTC 2019-11-09 16:05:25
Программа кодирования : mkvmerge v39.0.0 ('In The Waiting Line') 64-bit
Библиотека кодирования : libebml v1.3.9 + libmatroska v1.5.2

Видео
Идентификатор : 1
Формат : HEVC
Формат/Информация : High Efficiency Video Coding
Профиль формата : Main 10@L4.1@High
Идентификатор кодека : V_MPEGH/ISO/HEVC
Продолжительность : 2 ч. 4 м.
Битрейт : 10,2 Мбит/сек
Ширина : 1920 пикселей
Высота : 816 пикселей
Соотношение сторон : 2,35:1
Режим частоты кадров : Постоянный
Частота кадров : 23,976 (24000/1001) кадра/сек
Цветовое пространство : YUV
Субдискретизация насыщенности : 4:2:0
Битовая глубина : 10 бит
Бит/(Пиксели*Кадры) : 0.272
Размер потока : 8,89 Гбайт (89%)
Заголовок : Iron Man 2 / Rip by OldGamer
Библиотека кодирования : x265 2.9+15-81373aab81df:[Windows][GCC 8.2.0][64 bit] 10bit
Настройки программы : cpuid=1111039 / frame-threads=3 / numa-pools=12 / wpp / no-pmode / no-pme / no-psnr / no-ssim / log-level=2 / input-csp=1 / input-res=1920x816 / interlace=0 / total-frames=179297 / level-idc=41 / high-tier=1 / uhd-bd=0 / ref=5 / no-allow-non-conformance / no-repeat-headers / annexb / no-aud / no-hrd / info / hash=0 / no-temporal-layers / open-gop / min-keyint=23 / keyint=240 / gop-lookahead=0 / bframes=16 / b-adapt=2 / b-pyramid / bframe-bias=0 / rc-lookahead=80 / lookahead-slices=0 / scenecut=40 / radl=0 / no-splice / no-intra-refresh / ctu=64 / min-cu-size=8 / rect / amp / max-tu-size=32 / tu-inter-depth=4 / tu-intra-depth=4 / limit-tu=1 / rdoq-level=2 / dynamic-rd=0.00 / no-ssim-rd / signhide / no-tskip / nr-intra=0 / nr-inter=0 / no-constrained-intra / no-strong-intra-smoothing / max-merge=5 / limit-refs=3 / limit-modes / me=3 / subme=7 / merange=57 / temporal-mvp / weightp / weightb / no-analyze-src-pics / deblock=-3:-3 / no-sao / no-sao-non-deblock / rd=6 / no-early-skip / rskip / no-fast-intra / no-tskip-fast / no-cu-lossless / b-intra / no-splitrd-skip / rdpenalty=0 / psy-rd=2.00 / psy-rdoq=1.00 / no-rd-refine / no-lossless / cbqpoffs=0 / crqpoffs=0 / rc=crf / crf=19.0 / qcomp=0.75 / qpstep=4 / stats-write=0 / stats-read=0 / vbv-maxrate=50000 / vbv-bufsize=50000 / vbv-init=0.9 / crf-max=0.0 / crf-min=0.0 / ipratio=1.40 / pbratio=1.30 / aq-mode=2 / aq-strength=0.80 / no-cutree / zone-count=1 / zones: / start-frame=168370 / end-frame=177755 / qp=35 / no-strict-cbr / qg-size=32 / no-rc-grain / qpmax=69 / qpmin=0 / no-const-vbv / sar=1 / overscan=0 / videoformat=5 / range=0 / colorprim=2 / transfer=2 / colormatrix=2 / chromaloc=0 / display-window=0 / max-cll=0,0 / min-luma=0 / max-luma=1023 / log2-max-poc-lsb=8 / vui-timing-info / vui-hrd-info / slices=1 / no-opt-qp-pps / no-opt-ref-list-length-pps / no-multi-pass-opt-rps / scenecut-bias=0.00 / no-opt-cu-delta-qp / no-aq-motion / no-hdr / no-hdr-opt / no-dhdr10-opt / no-idr-recovery-sei / analysis-reuse-level=5 / scale-factor=0 / refine-intra=0 / refine-inter=0 / refine-mv=0 / no-limit-sao / ctu-info=0 / no-lowpass-dct / refine-mv-type=0 / copy-pic=1 / max-ausize-factor=1.0 / no-dynamic-refine / no-single-sei
Язык : English
Default : Да
Forced : Нет

Аудио #1
Идентификатор : 2
Формат : AC-3
Формат/Информация : Audio Coding 3
Коммерческое название : Dolby Digital
Идентификатор кодека : A_AC3
Продолжительность : 2 ч. 4 м.
Вид битрейта : Постоянный
Битрейт : 640 Кбит/сек
Каналы : 6 каналов
Channel layout : L R C LFE Ls Rs
Частота : 48,0 КГц
Частота кадров : 31,250 кадров/сек (1536 SPF)
Битовая глубина : 16 бит
Метод сжатия : С потерями
Размер потока : 571 Мбайт (6%)
Заголовок : Dub
Язык : Russian
ServiceKind/ : Complete Main
Default : Да
Forced : Нет

Аудио #2
Идентификатор : 3
Формат : AC-3
Формат/Информация : Audio Coding 3
Коммерческое название : Dolby Digital
Идентификатор кодека : A_AC3
Продолжительность : 2 ч. 4 м.
Вид битрейта : Постоянный
Битрейт : 640 Кбит/сек
Каналы : 6 каналов
Channel layout : L R C LFE Ls Rs
Частота : 48,0 КГц
Частота кадров : 31,250 кадров/сек (1536 SPF)
Битовая глубина : 16 бит
Метод сжатия : С потерями
Размер потока : 571 Мбайт (6%)
Язык : English
ServiceKind/ : Complete Main
Default : Нет
Forced : Нет

Текст #1
Идентификатор : 4
Формат : UTF-8
Идентификатор кодека : S_TEXT/UTF8
Идентификатор кодека/Информация : UTF-8 Plain Text
Продолжительность : 2 ч. 3 м.
Битрейт : 1 бит/сек
ElementCount : 22
Размер потока : 1,01 Кбайт (0%)
Заголовок : Forced
Язык : Russian
Default : Нет
Forced : Нет

Текст #2
Идентификатор : 5
Формат : UTF-8
Идентификатор кодека : S_TEXT/UTF8
Идентификатор кодека/Информация : UTF-8 Plain Text
Продолжительность : 2 ч. 4 м.
Битрейт : 92 бит/сек
ElementCount : 1548
Размер потока : 83,9 Кбайт (0%)
Заголовок : Full
Язык : Russian
Default : Нет
Forced : Нет

Текст #3
Идентификатор : 6
Формат : UTF-8
Идентификатор кодека : S_TEXT/UTF8
Идентификатор кодека/Информация : UTF-8 Plain Text
Продолжительность : 2 ч. 4 м.
Битрейт : 67 бит/сек
ElementCount : 1524
Размер потока : 61,1 Кбайт (0%)
Заголовок : Full
Язык : English
Default : Нет
Forced : Нет

Меню
00:00:00.000 : en:(01)00:00:00:000
00:05:04.303 : en:(02)00:05:04:303
00:11:07.583 : en:(03)00:11:07:583
00:17:59.953 : en:(04)00:17:59:953
00:25:53.009 : en:(05)00:25:53:009
00:30:26.783 : en:(06)00:30:26:783
00:37:33.000 : en:(07)00:37:33:000
00:43:59.636 : en:(08)00:43:59:636
00:51:39.346 : en:(09)00:51:39:346
01:00:10.523 : en:(10)01:00:10:523
01:07:01.517 : en:(11)01:07:01:517
01:16:00.764 : en:(12)01:16:00:764
01:21:13.284 : en:(13)01:21:13:284
01:30:33.552 : en:(14)01:30:33:552
01:38:49.339 : en:(15)01:38:49:339
01:45:41.793 : en:(16)01:45:41:793
01:54:17.350 : en:(17)01:54:17:350
02:04:38.887 : en:(18)02:04:38:887



Автор: OldGamer


_________________
Проголосуй за трекер Открытый торрент трекер - RUS-MEDIA.ORG

Проголосуй Открытый торрент трекер - RUS-MEDIA.ORG


Скачать книги и аудио книги через торрент


Вернуться к началу
 Профиль Отправить личное сообщение  
 
   Похожие торренты   Автор   Торрент   Размер 
В этой теме нет новых непрочитанных сообщений. Железный человек 2 / Iron Man 2 [Фантастика, боевик, приключения, 2010] BDRip-HEVC 720p, Dub

salma3

0 | 0

3.4 ГБ

В этой теме нет новых непрочитанных сообщений. Железный человек 2 / Iron Man 2 [фантастика, боевик, приключения, 2010] WEB-DL 1080p, Dub [Open Matte]

salma3

0 | 0

16.95 ГБ

В этой теме нет новых непрочитанных сообщений. Железный человек / Iron Man [Фантастика, боевик, приключения, 2008] Hybrid 1080p, Dub [Open Matte]

salma3

0 | 0

20.37 ГБ

В этой теме нет новых непрочитанных сообщений. Железный человек 2 / Iron Man 2 [фантастика, боевик, приключения, 2010] HDRip, Dub [Open Matte] [Лицензия]

K15

0 | 0

1.45 ГБ

В этой теме нет новых непрочитанных сообщений. Железный человек 2 / Iron Man 2 [фантастика, боевик, приключения, 2010] WEB-DLRip-AVC, Dub [Open Matte]

salma3

0 | 0

3.22 ГБ

В этой теме нет новых непрочитанных сообщений. Железный человек 2 / Iron Man [Фантастика, боевик, приключения, 2008] WEB-DLRip 720p, Dub [Open Matte]

salma3

В этой теме нет новых непрочитанных сообщений. Железный человек 2 / Iron Man [Фантастика, боевик, приключения, 2008] WEB-DLRip 720p, Dub [Open Matte]

salma3

0 | 0

3.97 ГБ


Начать новую тему Ответить на тему  [ 1 сообщение ] 




Для Мосгорсуда, Роскомнадзора и рекламодателей:: rstracker[собака]yandex.ru
cron
cron