COVID-19 - Последняя информация о коронавирусе на сайте Минздрава




Торрент файл
скачать торрент магнет ссылка Добавлен: 09 ноя 2019, 22:20
Размер: 3.4 ГБ
Сидеров: 0
Личеров: 0
Статус: (salma3)
Автор

СообщениеДобавлено: 09 ноя 2019, 22:20 

Не в сети
Супермодератор
Аватара пользователя
Дата регистрации:
15 фев 2012, 16:44
Возраст: 31
Спасибо: 8281 / 2148
Сообщения: 96721
Год выхода: 2003
Жанр: Фантастика, боевик, приключения
Режиссер: Энди Вачовски, Лана Вачовски

В ролях: Киану Ривз, Хьюго Уивинг, Кэрри-Энн Мосс, Лоренс Фишбёрн, Хэролд Перрино, Джада Пинкетт Смит, Моника Беллуччи, Глория Фостер, Джина Торрес, Нэтаниэл Лис


Борцы за свободу Нео, Тринити и Морфеус продолжают руководить восстанием людей против Армии Машин. Для уничтожения системы репрессий и эксплуатации они вынуждены прибегнуть не только к арсеналу превосходного оружия, но и к своим выдающимся навыкам. Участие в миссии по спасению человеческой расы от ее полного истребления приносит им более глубокое понимание конструкции Матрицы и осознание центральной роли Нео в судьбе человечества.



Страна: США, Австралия
Продолжительность: 02:17:00
Перевод: Дубляж

Файл
Кодек: H.264
Качество: WEB-DLRip-720
Видео: 1280x720 (16:9), 2431 kbps, 23.976 fps
Звук: Русский (AC-3, 6ch, 448 kbps)
Оригинал (AC-3, 6ch, 640 kbps)
Субтитры: русские, английские



x264 [info]: frame I:2087 Avg QP:16.06 size: 75241
x264 [info]: frame P:56732 Avg QP:17.55 size: 26145
x264 [info]: frame B:140041 Avg QP:20.24 size: 6288
x264 [info]: consecutive B-frames: 5.5% 9.0% 14.6% 28.2% 19.7% 18.9% 1.8% 0.9% 1.3%
x264 [total]: encoded 198860 frames, 8.64 fps, 2431.49 kb/s

General
Unique ID : 263506933526588121138944468382836782736 (0xC63D96E1D21D1B695AFCAD3DAE1AF690)
Complete name : F:ФИЛЬМЫМатрица. Перезагрузка (Open Matte).mkv
Format : Matroska
Format version : Version 4
File size : 3.40 GiB
Duration : 2 h 18 min
Overall bit rate : 3 521 kb/s
Movie name : Матрица: Перезагрузка / The Matrix Reloaded (2003) (Open Matte) - #LORDKILL#
Encoded date : UTC 2019-11-09 18:02:10
Writing application : mkvmerge v32.0.0 ('Astral Progressions') 64-bit
Writing library : libebml v1.3.7 + libmatroska v1.5.0

Video
ID : 1
Format : AVC
Format/Info : Advanced Video Codec
Format profile : High@L4.1
Format settings : CABAC / 9 Ref Frames
Format settings, CABAC : Yes
Format settings, Reference : 9 frames
Codec ID : V_MPEG4/ISO/AVC
Duration : 2 h 18 min
Bit rate : 2 431 kb/s
Width : 1 280 pixels
Height : 720 pixels
Display aspect ratio : 16:9
Frame rate mode : Constant
Frame rate : 23.976 (24000/1001) FPS
Color space : YUV
Chroma subsampling : 4:2:0
Bit depth : 8 bits
Scan type : Progressive
Bits/(Pixel*Frame) : 0.110
Stream size : 2.35 GiB (69%)
Writing library : x264 core 146 r2538 121396c
Encoding settings : cabac=1 / ref=9 / deblock=1:-2:-2 / analyse=0x3:0x113 / me=umh / subme=10 / psy=1 / psy_rd=1.00:0.15 / mixed_ref=1 / me_range=32 / chroma_me=1 / trellis=2 / 8x8dct=1 / cqm=0 / deadzone=21,11 / fast_pskip=0 / chroma_qp_offset=-3 / threads=12 / lookahead_threads=2 / sliced_threads=0 / nr=0 / decimate=1 / interlaced=0 / bluray_compat=0 / constrained_intra=0 / bframes=8 / b_pyramid=2 / b_adapt=2 / b_bias=0 / direct=1 / weightb=1 / open_gop=0 / weightp=2 / keyint=240 / keyint_min=23 / scenecut=40 / intra_refresh=0 / rc=crf / mbtree=0 / crf=20.0 / qcomp=0.60 / qpmin=0 / qpmax=69 / qpstep=4 / ip_ratio=1.40 / pb_ratio=1.30 / aq=1:1.00
Default : Yes
Forced : No

Audio #1
ID : 2
Format : AC-3
Format/Info : Audio Coding 3
Commercial name : Dolby Digital
Codec ID : A_AC3
Duration : 2 h 18 min
Bit rate mode : Constant
Bit rate : 448 kb/s
Channel(s) : 6 channels
Channel layout : L R C LFE Ls Rs
Sampling rate : 48.0 kHz
Frame rate : 31.250 FPS (1536 SPF)
Bit depth : 16 bits
Compression mode : Lossy
Stream size : 443 MiB (13%)
Title : Дубляж
Language : Russian
Service kind : Complete Main
Default : Yes
Forced : No

Audio #2
ID : 3
Format : AC-3
Format/Info : Audio Coding 3
Commercial name : Dolby Digital
Codec ID : A_AC3
Duration : 2 h 18 min
Bit rate mode : Constant
Bit rate : 640 kb/s
Channel(s) : 6 channels
Channel layout : L R C LFE Ls Rs
Sampling rate : 48.0 kHz
Frame rate : 31.250 FPS (1536 SPF)
Bit depth : 16 bits
Compression mode : Lossy
Stream size : 633 MiB (18%)
Language : English
Service kind : Complete Main
Default : No
Forced : No

Text #1
ID : 4
Format : UTF-8
Codec ID : S_TEXT/UTF8
Codec ID/Info : UTF-8 Plain Text
Duration : 2 h 17 min
Bit rate : 67 b/s
Count of elements : 1186
Stream size : 67.6 KiB (0%)
Language : Russian
Default : No
Forced : No

Text #2
ID : 5
Format : UTF-8
Codec ID : S_TEXT/UTF8
Codec ID/Info : UTF-8 Plain Text
Duration : 2 h 15 min
Bit rate : 45 b/s
Count of elements : 1192
Stream size : 45.2 KiB (0%)
Language : English
Default : No
Forced : No

Text #3
ID : 6
Format : UTF-8
Codec ID : S_TEXT/UTF8
Codec ID/Info : UTF-8 Plain Text
Duration : 2 h 16 min
Bit rate : 46 b/s
Count of elements : 1229
Stream size : 46.2 KiB (0%)
Title : SDH
Language : English
Default : No
Forced : No

Menu
00:00:00.000 : en:Trinity's In
00:03:50.230 : en:Trust Me
00:08:55.368 : en:Upgrades
00:12:16.903 : en:Zion
00:16:24.317 : en:Matter of Time
00:19:43.182 : en:Homecomings
00:23:29.408 : en:We Are Still Here
00:27:26.812 : en:Celebrating Humanity
00:32:01.253 : en:Smith Will Suffice
00:33:43.188 : en:What Is Control?
00:37:57.442 : en:Summoned
00:40:55.620 : en:Seraph
00:43:44.956 : en:The Oracle
00:50:42.706 : en:Swarm of Smiths
00:55:08.472 : en:Sticking It to Them
01:00:03.099 : en:The Volunteer
01:02:49.766 : en:Taste of Merovingian
01:08:52.295 : en:Persephone's Kiss
01:13:06.882 : en:Unlocking the Keymaker
01:16:21.410 : en:Blade Leapers
01:20:31.827 : en:Twin Trouble
01:22:47.129 : en:Freeway Entrance
01:26:12.501 : en:Cross-Vehicular Traffic
01:29:52.887 : en:Biker Girl
01:32:50.899 : en:Trucks Amuck
01:37:10.825 : en:The Reason We're Here
01:40:51.379 : en:Sacrifice and Sabotage
01:44:57.791 : en:So Many of Me
01:48:12.152 : en:The Architect
01:52:25.572 : en:The One's Function
01:55:42.936 : en:Neo's Choice
01:57:37.550 : en:Not Letting Go
02:01:51.471 : en:Bomb's Target
02:04:18.451 : en:Feeling the Enemy
02:07:04.116 : en:End Credits (Calm Like a Bomb, Reload, Sleeping Awake, Session, When the World Ends (Oakenfold Remix))
02:16:29.681 : en:The Matrix Revolutions Trailer


_________________
Проголосуй за трекер Открытый торрент трекер - RUS-MEDIA.ORG

Проголосуй Открытый торрент трекер - RUS-MEDIA.ORG


Скачать книги и аудио книги через торрент


Вернуться к началу
 Профиль Отправить личное сообщение  
 
   Похожие торренты   Автор   Торрент   Размер 
В этой теме нет новых непрочитанных сообщений. Матрица / The Matrix [Фантастика, боевик, приключения, 1999] WEB-DLRip-720, Dub [Open Matte]

salma3

0 | 0

3.53 ГБ

В этой теме нет новых непрочитанных сообщений. Матрица: Революция / The Matrix Revolutions [Фантастика, боевик, приключения, 2003] WEB-DLRip 720p, Dub [Open Matte]

salma3

0 | 0

5.05 ГБ

В этой теме нет новых непрочитанных сообщений. Матрица: Перезагрузка / The Matrix: Reloaded [Фантастика, боевик, триллер, 2003] BDRemux 2160p, Dub [4K]

salma3

0 | 0

76.4 ГБ

В этой теме нет новых непрочитанных сообщений. Матрица: Перезагрузка / The Matrix Reloaded [Фантастика, Боевик, 2003] BDRip-HEVC 720p, Dub [Лицензия]

salma3

12 | 0

3.53 ГБ

В этой теме нет новых непрочитанных сообщений. Матрица: Перезагрузка / The Matrix: Reloaded [Фантастика, боевик, триллер, 2003] UHD Blu-Ray 2160p, Dub [4K]

salma3

0 | 0

84.55 ГБ

В этой теме нет новых непрочитанных сообщений. Матрица: Революция / The Matrix Revolutions [Фантастика, боевик, 2003] HDTVRip-AVC, Dub [Open Matte]

salma3

0 | 1

1.57 ГБ

В этой теме нет новых непрочитанных сообщений. Матрица: Революция / The Matrix Revolutions [Фантастика, боевик, триллер, 2003] HDTV 1080p, Dub [Open Matte]

salma3

0 | 0

6.37 ГБ


Начать новую тему Ответить на тему  [ 1 сообщение ] 




Для Мосгорсуда, Роскомнадзора и рекламодателей:: rstracker[собака]yandex.ru
cron