Торрент файл
скачать торрент магнет ссылка Добавлен: 09 ноя 2019, 03:12
Размер: 8.66 ГБ
Сидеров: 0
Личеров: 0
Статус: (salma3)
Автор

СообщениеДобавлено: 09 ноя 2019, 03:12 

Не в сети
Супермодератор
Аватара пользователя
Дата регистрации:
15 фев 2012, 16:44
Возраст: 33
Спасибо: 8325 / 2148
Сообщения: 97229
Год выхода: 2008
Жанр: фантастика, боевик, триллер
Режиссер: Луи Летерье

В ролях: Эдвард Нортон, Лив Тайлер, Тим Рот, Уильям Хёрт, Тим Блейк Нельсон, Тай Бурелл, Кристина Кэбот, Питер Менса, Лу Ферриньо, Пол Соулз

О фильме: История доктора Брюса Баннера, который ищет лекарство от своего необычного «заболевания», превращающего его во время эмоционального стресса в гигантского зеленого монстра Халка. Находясь в бегах от армии, стремящейся его захватить, Брюс почти находит лекарство, но все старания идут прахом, когда у Халка вдруг появляется новый, невероятно сильный противник.



Страна: США, Канада
Продолжительность: 01:52:13
Перевод: дублированный

Качество: BDRip-HEVC 1080p
Кодек: HEVC (x265)
Видео: 1920x816 (2,35:1), 9956 кбит/сек, 0.265 бит/(Пиксели*Кадры), 23.976 (24000/1001) кадр/сек, HEVC (Main10@L.4.1@High) 10 бит
Аудио1: AC3, 6 ch, 448 Kbps - русский Дублированный
Аудио2: AC3, 6 ch, 640 Kbps - english Original
Субтитры: Русские форсированные и полные (SRT), English full (ASS, SRT)
Навигация по главам: Есть

x265 [info]: frame I: 683, Avg QP:17.85 kb/s: 21054.97
x265 [info]: frame P: 33570, Avg QP:19.65 kb/s: 14961.63
x265 [info]: frame B: 127186, Avg QP:21.30 kb/s: 8573.86
x265 [info]: Weighted P-Frames: Y:6.5% UV:5.6%
x265 [info]: Weighted B-Frames: Y:8.5% UV:7.1%
x265 [info]: consecutive B-frames: 5.6% 7.0% 10.6% 36.4% 10.2% 13.7% 4.6% 6.2% 2.1% 1.7% 0.6% 0.8% 0.2% 0.2% 0.1%
x265 [info]: encoded 161439 frames in 155572.73s (1.04 fps), 9954.95 kb/s, Avg QP:20.95

Формат : Matroska
Версия формата : Version 4
Размер файла : 8,66 Гбайт
Продолжительность : 1 ч. 52 м.
Общий поток : 11,0 Мбит/сек
Название фильма : The.Incredible.Hulk.2008.BDRemux.1080p
Дата кодирования : UTC 2019-11-07 13:29:02
Программа кодирования : mkvmerge v39.0.0 ('In The Waiting Line') 64-bit
Библиотека кодирования : libebml v1.3.9 + libmatroska v1.5.2

Видео
Идентификатор : 1
Формат : HEVC
Формат/Информация : High Efficiency Video Coding
Профиль формата : Main 10@L4.1@High
Идентификатор кодека : V_MPEGH/ISO/HEVC
Продолжительность : 1 ч. 52 м.
Битрейт : 9956 Кбит/сек
Ширина : 1920 пикселей
Высота : 816 пикселей
Соотношение сторон : 2,35:1
Режим частоты кадров : Постоянный
Частота кадров : 23,976 (24000/1001) кадра/сек
Цветовое пространство : YUV
Субдискретизация насыщенности : 4:2:0
Битовая глубина : 10 бит
Бит/(Пиксели*Кадры) : 0.265
Размер потока : 7,80 Гбайт (90%)
Заголовок : The Incredible Hulk / Rip by OldGamer
Библиотека кодирования : x265 2.9+15-81373aab81df:[Windows][GCC 8.2.0][64 bit] 10bit
Настройки программы : cpuid=1111039 / frame-threads=3 / numa-pools=12 / wpp / no-pmode / no-pme / no-psnr / no-ssim / log-level=2 / input-csp=1 / input-res=1920x816 / interlace=0 / total-frames=161439 / level-idc=41 / high-tier=1 / uhd-bd=0 / ref=5 / no-allow-non-conformance / no-repeat-headers / annexb / no-aud / no-hrd / info / hash=0 / no-temporal-layers / open-gop / min-keyint=23 / keyint=240 / gop-lookahead=0 / bframes=14 / b-adapt=2 / b-pyramid / bframe-bias=0 / rc-lookahead=80 / lookahead-slices=0 / scenecut=40 / radl=0 / no-splice / no-intra-refresh / ctu=64 / min-cu-size=8 / rect / amp / max-tu-size=32 / tu-inter-depth=4 / tu-intra-depth=4 / limit-tu=1 / rdoq-level=2 / dynamic-rd=0.00 / no-ssim-rd / signhide / no-tskip / nr-intra=0 / nr-inter=0 / no-constrained-intra / no-strong-intra-smoothing / max-merge=5 / limit-refs=3 / limit-modes / me=3 / subme=7 / merange=57 / temporal-mvp / weightp / weightb / no-analyze-src-pics / deblock=-3:-3 / no-sao / no-sao-non-deblock / rd=6 / no-early-skip / rskip / no-fast-intra / no-tskip-fast / no-cu-lossless / b-intra / no-splitrd-skip / rdpenalty=0 / psy-rd=2.00 / psy-rdoq=1.00 / no-rd-refine / no-lossless / cbqpoffs=0 / crqpoffs=0 / rc=crf / crf=19.4 / qcomp=0.75 / qpstep=4 / stats-write=0 / stats-read=0 / vbv-maxrate=50000 / vbv-bufsize=50000 / vbv-init=0.9 / crf-max=0.0 / crf-min=0.0 / ipratio=1.40 / pbratio=1.30 / aq-mode=2 / aq-strength=0.80 / no-cutree / zone-count=1 / zones: / start-frame=151900 / end-frame=161439 / qp=35 / no-strict-cbr / qg-size=32 / no-rc-grain / qpmax=69 / qpmin=0 / no-const-vbv / sar=1 / overscan=0 / videoformat=5 / range=0 / colorprim=2 / transfer=2 / colormatrix=2 / chromaloc=0 / display-window=0 / max-cll=0,0 / min-luma=0 / max-luma=1023 / log2-max-poc-lsb=8 / vui-timing-info / vui-hrd-info / slices=1 / no-opt-qp-pps / no-opt-ref-list-length-pps / no-multi-pass-opt-rps / scenecut-bias=0.00 / no-opt-cu-delta-qp / no-aq-motion / no-hdr / no-hdr-opt / no-dhdr10-opt / no-idr-recovery-sei / analysis-reuse-level=5 / scale-factor=0 / refine-intra=0 / refine-inter=0 / refine-mv=0 / no-limit-sao / ctu-info=0 / no-lowpass-dct / refine-mv-type=0 / copy-pic=1 / max-ausize-factor=1.0 / no-dynamic-refine / no-single-sei
Язык : English
Default : Да
Forced : Нет

Аудио #1
Идентификатор : 2
Формат : AC-3
Формат/Информация : Audio Coding 3
Коммерческое название : Dolby Digital
Идентификатор кодека : A_AC3
Продолжительность : 1 ч. 52 м.
Вид битрейта : Постоянный
Битрейт : 448 Кбит/сек
Каналы : 6 каналов
Channel layout : L R C LFE Ls Rs
Частота : 48,0 КГц
Частота кадров : 31,250 кадров/сек (1536 SPF)
Битовая глубина : 16 бит
Метод сжатия : С потерями
Размер потока : 360 Мбайт (4%)
Заголовок : Dub
Язык : Russian
ServiceKind : Complete Main
Default : Да
Forced : Нет

Аудио #2
Идентификатор : 3
Формат : AC-3
Формат/Информация : Audio Coding 3
Коммерческое название : Dolby Digital
Идентификатор кодека : A_AC3
Продолжительность : 1 ч. 52 м.
Вид битрейта : Постоянный
Битрейт : 640 Кбит/сек
Каналы : 6 каналов
Channel layout : L R C LFE Ls Rs
Частота : 48,0 КГц
Частота кадров : 31,250 кадров/сек (1536 SPF)
Битовая глубина : 16 бит
Метод сжатия : С потерями
Размер потока : 514 Мбайт (6%)
Язык : English
ServiceKind : Complete Main
Default : Нет
Forced : Нет

Текст #1
Идентификатор : 4
Формат : UTF-8
Идентификатор кодека : S_TEXT/UTF8
Идентификатор кодека/Информация : UTF-8 Plain Text
Продолжительность : 1 ч. 50 м.
Битрейт : 7 бит/сек
ElementCount : 125
Размер потока : 5,87 Кбайт (0%)
Заголовок : Forced
Язык : Russian
Default : Нет
Forced : Нет

Текст #2
Идентификатор : 5
Формат : UTF-8
Идентификатор кодека : S_TEXT/UTF8
Идентификатор кодека/Информация : UTF-8 Plain Text
Продолжительность : 1 ч. 44 м.
Битрейт : 58 бит/сек
ElementCount : 869
Размер потока : 45,0 Кбайт (0%)
Язык : Russian
Default : Нет
Forced : Нет

Текст #3
Идентификатор : 6
Формат : UTF-8
Идентификатор кодека : S_TEXT/UTF8
Идентификатор кодека/Информация : UTF-8 Plain Text
Продолжительность : 1 ч. 44 м.
Битрейт : 58 бит/сек
ElementCount : 869
Размер потока : 45,0 Кбайт (0%)
Заголовок : Full
Язык : Russian
Default : Нет
Forced : Нет

Текст #4
Идентификатор : 7
Формат : ASS
Идентификатор кодека : S_TEXT/ASS
Идентификатор кодека/Информация : Advanced Sub Station Alpha
Продолжительность : 1 ч. 41 м.
Битрейт : 56 бит/сек
ElementCount : 671
Метод сжатия : Без потерь
Размер потока : 42,2 Кбайт (0%)
Язык : English
Default : Нет
Forced : Нет

Текст #5
Идентификатор : 8
Формат : UTF-8
Идентификатор кодека : S_TEXT/UTF8
Идентификатор кодека/Информация : UTF-8 Plain Text
Продолжительность : 1 ч. 44 м.
Битрейт : 33 бит/сек
ElementCount : 830
Размер потока : 25,4 Кбайт (0%)
Заголовок : SDH
Язык : English
Default : Да
Forced : Нет

Меню
00:00:00.000 : en:(01)00:00:00:000
00:05:49.640 : en:(02)00:05:49:640
00:12:52.313 : en:(03)00:12:52:313
00:16:10.761 : en:(04)00:16:10:761
00:21:17.025 : en:(05)00:21:17:025
00:26:27.794 : en:(06)00:26:27:794
00:30:42.882 : en:(07)00:30:42:882
00:34:11.549 : en:(08)00:34:11:549
00:40:22.169 : en:(09)00:40:22:169
00:47:33.308 : en:(10)00:47:33:308
00:55:57.187 : en:(11)00:55:57:187
01:02:27.452 : en:(12)01:02:27:452
01:07:56.781 : en:(13)01:07:56:781
01:12:20.919 : en:(14)01:12:20:919
01:19:53.079 : en:(15)01:19:53:079
01:24:03.038 : en:(16)01:24:03:038
01:30:27.547 : en:(17)01:30:27:547
01:37:03.984 : en:(18)01:37:03:984
01:42:41.113 : en:(19)01:42:41:113
01:45:35.162 : en:(20)01:45:35:162
01:52:13.768 : en:(21)01:52:13:768



Автор: OldGamer


_________________
Проголосуй за трекер Открытый торрент трекер - RUS-MEDIA.ORG

Проголосуй Открытый торрент трекер - RUS-MEDIA.ORG


Вернуться к началу
 Профиль Отправить личное сообщение  
 
   Похожие торренты   Автор   Торрент   Размер 
В этой теме нет новых непрочитанных сообщений. Аванпост / The Blackout (Егор Баранов) [2019, Триллер, фантастика, боевик,BDRip - HEVC 10bit 1080p] [ DUB Лицензия+Eng]

Враг Нароода

0 | 0

13.81 ГБ

В этой теме нет новых непрочитанных сообщений. Аванпост / The Blackout (Егор Баранов) [2019, Триллер, фантастика, боевик,BDRip - HEVC 10bit 1080p] [ DUB Лицензия+Eng]

Враг Нароода

1 | 1

7.43 ГБ

В этой теме нет новых непрочитанных сообщений. Звёздный десант / Starship Troopers (Пол Верховен) [1997 г., Фантастика, боевик, триллер, приключения, UHD BDRip-HEVC 1080p | HDR] Dub

zorgi

8 | 0

13.64 ГБ

В этой теме нет новых непрочитанных сообщений. Особь / Species [ужасы, фантастика, боевик, 1995] BDRip-HEVC 1080p, Dub

salma3

0 | 0

10.74 ГБ

В этой теме нет новых непрочитанных сообщений. ВАЛЛ·И / WALL·E (Эндрю Стэнтон) [2008 г., мультфильм, фантастика, приключения, семейный, BDRip-HEVC 1080p] | Dub | Лицензия | Локализованная версия

zorgi

0 | 1

4.57 ГБ

В этой теме нет новых непрочитанных сообщений. Грань / Fringe [S01] [фантастика, триллер, детектив, 2009] BDRip-HEVC 1080p, Dub

salma3

0 | 0

59.25 ГБ

В этой теме нет новых непрочитанных сообщений. Аванпост (Егор Баранов) [2019 г., триллер, фантастика, боевик, BDRip-HEVC 1080p] Лицензия

zorgi

27 | 0

8.42 ГБ


Начать новую тему Ответить на тему  [ 1 сообщение ] 




Для Мосгорсуда, Роскомнадзора и рекламодателей:: rstracker[собака]yandex.ru
cron