Торрент файл
скачать торрент магнет ссылка Добавлен: 08 ноя 2019, 16:05
Размер: 3.19 ГБ
Сидеров: 0
Личеров: 2
Статус: (salma3)
Автор

СообщениеДобавлено: 08 ноя 2019, 16:05 

Не в сети
Супермодератор
Аватара пользователя
Дата регистрации:
15 фев 2012, 16:44
Возраст: 32
Спасибо: 8321 / 2148
Сообщения: 97229
Год выпуска: 2019
Жанр: мелодрама, комедия
Режиссер: Люк Снеллин

В ролях: Изабела Монер, Кирнан Шипка, Джоан Кьюсак, Одейя Раш, Джейкоб Баталон, Шамеик Мур, Митчелл Хоуп, Майлз Роббинс, Лив Хьюсон

Описание: Неожиданный снежный буран в канун Рождества застаёт жителей Грейстауна врасплох: поезда останавливаются, машины вязнут в снегу, а люди стараются переждать непогоду дома. И лишь храбрая девушка выбирается из застрявшего в снегу экспресса, чтобы посидеть в тишине маленькой закусочной, где выпекают вафли. Она и не догадывается, что её поступок стал первым звеном в цепи событий, которые изменят многие жизни: одна девушка влюбится в очаровательного незнакомца, трое друзей выиграют гонку в «Вафельную», а судьба карликовой свиньи окажется в руках влюблённого баристы...



Страна: США
Продолжительность: 01:33:00
Перевод: Профессиональный (дублированный) [Невафильм]

Качество: WEB-DL 1080p
Видео: 1920x1080 (16:9), 24.000 fps, MPEG-4 AVC ~3 650 kbps avg
Аудио №1: 48.0 kHz, Enhanced Audio Coding 3, 3/2 (L,C,R,l,r) + LFE ch, ~640 kbps |
Аудио №2: 48.0 kHz, Enhanced Audio Coding 3, 3/2 (L,C,R,l,r) + LFE ch, ~640 kbps |
Субтитры: русские (forced + full), английские
Формат субтитров: UTF-8 Plain Text

General
Unique ID : 200985210209485219291563379027880636651 (0x973457EDCA4D03F038C284C85546F0EB)
Complete name : Let.It.Snow.2019.1080p.NF.WEB-DL.DDP5.1.H264-EniaHD.mkv
Format : Matroska
Format version : Version 4
File size : 3.19 GiB
Duration : 1 h 33 min
Overall bit rate mode : Variable
Overall bit rate : 4 892 kb/s
Movie name : Let It Snow (2019) - EniaHD
Encoded date : UTC 2019-11-08 08:32:10
Writing application : mkvmerge v39.0.0 ('In The Waiting Line') 64-bit
Writing library : libebml v1.3.9 + libmatroska v1.5.2

Video
ID : 1
Format : AVC
Format/Info : Advanced Video Codec
Format profile : Main@L4
Format settings : CABAC / 3 Ref Frames
Format settings, CABAC : Yes
Format settings, Reference fra : 3 frames
Codec ID : V_MPEG4/ISO/AVC
Duration : 1 h 33 min
Bit rate mode : Variable
Bit rate : 3 650 kb/s
Maximum bit rate : 5 475 kb/s
Width : 1 920 pixels
Height : 1 080 pixels
Display aspect ratio : 16:9
Frame rate mode : Constant
Frame rate : 24.000 FPS
Color space : YUV
Chroma subsampling : 4:2:0
Bit depth : 8 bits
Scan type : Progressive
Bits/(Pixel*Frame) : 0.073
Stream size : 2.36 GiB (74%)
Writing library : x264 core 148 r2715 7e75228
Encoding settings : cabac=1 / ref=3 / deblock=1:0:0 / analyse=0x1:0x111 / me=umh / subme=10 / psy=1 / psy_rd=1.00:0.00 / mixed_ref=1 / me_range=24 / chroma_me=1 / trellis=2 / 8x8dct=0 / cqm=0 / deadzone=21,11 / fast_pskip=1 / chroma_qp_offset=-2 / threads=8 / lookahead_threads=1 / sliced_threads=0 / nr=0 / decimate=1 / interlaced=0 / bluray_compat=0 / stitchable=1 / constrained_intra=0 / bframes=2 / b_pyramid=0 / b_adapt=2 / b_bias=0 / direct=3 / weightb=1 / open_gop=0 / weightp=2 / keyint=250 / keyint_min=24 / scenecut=0 / intra_refresh=0 / rc_lookahead=48 / rc=2pass / mbtree=1 / bitrate=3650 / ratetol=1.0 / qcomp=0.50 / qpmin=6 / qpmax=51 / qpstep=4 / cplxblur=20.0 / qblur=0.5 / vbv_maxrate=5475 / vbv_bufsize=7300 / nal_hrd=vbr / filler=0 / ip_ratio=1.40 / aq=1:1.00
Default : Yes
Forced : No

Audio #1
ID : 2
Format : E-AC-3
Format/Info : Enhanced AC-3
Commercial name : Dolby Digital Plus
Codec ID : A_EAC3
Duration : 1 h 33 min
Bit rate mode : Constant
Bit rate : 640 kb/s
Channel(s) : 6 channels
Channel layout : L R C LFE Ls Rs
Sampling rate : 48.0 kHz
Frame rate : 31.250 FPS (1536 SPF)
Compression mode : Lossy
Stream size : 428 MiB (13%)
Title : Dub
Language : Russian
Service kind : Complete Main
Default : Yes
Forced : No

Audio #2
ID : 3
Format : E-AC-3
Format/Info : Enhanced AC-3
Commercial name : Dolby Digital Plus
Codec ID : A_EAC3
Duration : 1 h 33 min
Bit rate mode : Constant
Bit rate : 640 kb/s
Channel(s) : 6 channels
Channel layout : L R C LFE Ls Rs
Sampling rate : 48.0 kHz
Frame rate : 31.250 FPS (1536 SPF)
Compression mode : Lossy
Stream size : 428 MiB (13%)
Title : Original
Language : English
Service kind : Complete Main
Default : No
Forced : No

Text #1
ID : 4
Format : UTF-8
Codec ID : S_TEXT/UTF8
Codec ID/Info : UTF-8 Plain Text
Duration : 1 h 32 min
Bit rate : 0 b/s
Count of elements : 11
Stream size : 568 Bytes (0%)
Title : Forced
Language : Russian
Default : Yes
Forced : Yes

Text #2
ID : 5
Format : UTF-8
Codec ID : S_TEXT/UTF8
Codec ID/Info : UTF-8 Plain Text
Duration : 1 h 32 min
Bit rate : 81 b/s
Count of elements : 1313
Stream size : 55.5 KiB (0%)
Title : Full
Language : Russian
Default : No
Forced : No

Text #3
ID : 6
Format : UTF-8
Codec ID : S_TEXT/UTF8
Codec ID/Info : UTF-8 Plain Text
Duration : 1 h 32 min
Bit rate : 73 b/s
Count of elements : 1643
Stream size : 49.6 KiB (0%)
Language : English
Default : No
Forced : No

Релиз от: Wilmots@EniaHD


_________________
Проголосуй за трекер Открытый торрент трекер - RUS-MEDIA.ORG

Проголосуй Открытый торрент трекер - RUS-MEDIA.ORG


Вернуться к началу
 Профиль Отправить личное сообщение  
 
   Похожие торренты   Автор   Торрент   Размер 
В этой теме нет новых непрочитанных сообщений. Пусть идёт снег / Let It Snow [Мелодрама, комедия, 2019] WEB-DLRip, Dub [Невафильм]

salma3

0 | 0

1.46 ГБ

В этой теме нет новых непрочитанных сообщений. Пусть идёт снег / Let It Snow [Мелодрама, комедия, 2019] WEB-DLRip-AVC, Dub [Невафильм]

salma3

5 | 2

745.61 МБ

В этой теме нет новых непрочитанных сообщений. Пусть идёт снег / Let It Snow [Мелодрама, комедия, 2019] WEB-DLRip-AVC, Dub [Невафильм]

salma3

0 | 0

1.46 ГБ

В этой теме нет новых непрочитанных сообщений. Пусть идёт снег / Let It Snow [Мелодрама, комедия, 2019] WEBRip 720p, Dub [Невафильм]

salma3

2 | 2

2.04 ГБ

В этой теме нет новых непрочитанных сообщений. В упор / Point Blank [Боевик, триллер, криминал, 2019] WEB-DL 1080p, Dub [Невафильм]

salma3

0 | 0

3.13 ГБ

В этой теме нет новых непрочитанных сообщений. Агенты «Щ.И.Т.» / Agents of S.H.I.E.L.D. [S06] [фантастика, боевик, триллер, 2019] WEB-DL 1080p, Dub [Невафильм]

salma3

5 | 6

35.58 ГБ

В этой теме нет новых непрочитанных сообщений. Тайная одержимость / Secret Obsession [Триллер, драма, 2019] WEB-DL 1080p, Dub [Невафильм]

salma3

0 | 5

4.25 ГБ


Начать новую тему Ответить на тему  [ 1 сообщение ] 




Для Мосгорсуда, Роскомнадзора и рекламодателей:: rstracker[собака]yandex.ru
cron