COVID-19 - Последняя информация о коронавирусе на сайте Минздрава




Торрент файл
скачать торрент магнет ссылка Добавлен: 25 окт 2019, 10:29
Размер: 6.14 ГБ
Сидеров: 1
Личеров: 0
Статус: (salma3)
Автор

СообщениеДобавлено: 25 окт 2019, 10:29 

Не в сети
Супермодератор
Аватара пользователя
Дата регистрации:
15 фев 2012, 16:44
Возраст: 31
Спасибо: 8280 / 2148
Сообщения: 96717
Год выхода: 2019
Жанр: Ужасы, триллер, детектив
Режиссер: Ларс Клевберг

В ролях: Кэтрин Прескотт, Тайлер Янг, Саманта Логан, Кинэн Трэйси, Присцилла Квинтана, Хавьер Ботет, Митч Пилледжи, Дави Сантос, Кэти Стивенс, Грейс Забриски и др.

О фильме: В руки к нелюдимой старшекласснице Бёрд, работающей в антикварном магазине, попадает винтажный фотоаппарат Polaroid. Девушка тут же делает снимок коллеги, а позже подруга вытаскивает её на вечеринку, где все тоже очень любят фотографироваться. В этот же вечер Бёрд узнаёт, что парень из магазина мёртв, а когда погибает и хозяйка вечеринки, Бёрд начинает догадываться, кто умрёт следующим. Дьявольское устройство убивает любого, кто окажется на фотографии, сделанной с его помощью, и теперь группа подростков должна разрешить загадку проклятия, пока фотоаппарат не прикончил их всех.



Страна: Канада, Норвегия, США
Продолжительность: 01:27:59
Перевод: Дублированный[iTunes]

Файл
Качество:
Видео: HEVC/H.265, 1920x800, 8767 Kbps
Аудио 1: AC3, 6 ch, 384 Kbps | Русский
Аудио 2: AC3, 6 ch, 640 Kbps | Английиский
Субтитры: русские, английские

Код:
Общее
Уникальный идентификатор                 : 300172288421836124613490106335434548618 (0xE1D31472AADA80A072DE32507DB2A58A)
Полное имя                               : Polaroid.2019.BDRip.1080p.10bit.HEVC.mkv
Формат                                   : Matroska
Версия формата                           : Version 4 / Version 2
Размер файла                             : 6,14 Гбайт
Продолжительность                        : 1 ч. 27 м.
Общий поток                              : 9990 Кбит/сек
Программа кодирования                    : XviD4PSP 8.0.77
Библиотека кодирования                   : Lavf58.20.100
ErrorDetectionType                       : Per level 1
ENCODING_INFO                            : MATROSKA,WEBM > MKV

Видео
Идентификатор                            : 1
Формат                                   : HEVC
Формат/Информация                        : High Efficiency Video Coding
Профиль формата                          : Main @High
Идентификатор кодека                     : V_MPEGH/ISO/HEVC
Продолжительность                        : 1 ч. 27 м.
Битрейт                                  : 8767 Кбит/сек
Ширина                                   : 1920 пикселей
Высота                                   : 800 пикселей
Соотношение сторон                       : 2,40:1
Режим частоты кадров                     : Постоянный
Частота кадров                           : 24,000 кадра/сек
Цветовое пространство                    : YUV
Субдискретизация насыщенности            : 4:2:0
Битовая глубина                          : 10 бит
Бит/(Пиксели*Кадры)                      : 0.238
Размер потока                            : 5,39 Гбайт (88%)
Язык                                     : English
Default                                  : Да
Forced                                   : Нет
Цветовой диапазон                        : Full
ENCODING_INFO                            : H264 > HEVC NVENC VBR 9000kbps HQ

Аудио #1
Идентификатор                            : 2
Формат                                   : AC-3
Формат/Информация                        : Audio Coding 3
Параметр Endianness формата              : Big
Идентификатор кодека                     : A_AC3
Продолжительность                        : 1 ч. 27 м.
Вид битрейта                             : Постоянный
Битрейт                                  : 384 Кбит/сек
Каналы                                   : 6 каналов
Расположение каналов                     : Front: L C R, Side: L R, LFE
Частота                                  : 48,0 КГц
Частота кадров                           : 31,250 кадров/сек (1536 SPF)
Битовая глубина                          : 16 бит
Метод сжатия                             : С потерями
Размер потока                            : 242 Мбайт (4%)
Заголовок                                : Dub iTunes
Язык                                     : Russian
ServiceKind/String                       : Complete Main
Default                                  : Да
Forced                                   : Нет
ENCODING_INFO                            : AC3 > COPY Безопасное

Аудио #2
Идентификатор                            : 3
Формат                                   : AC-3
Формат/Информация                        : Audio Coding 3
Параметр Endianness формата              : Big
Идентификатор кодека                     : A_AC3
Продолжительность                        : 1 ч. 27 м.
Вид битрейта                             : Постоянный
Битрейт                                  : 640 Кбит/сек
Каналы                                   : 6 каналов
Расположение каналов                     : Front: L C R, Side: L R, LFE
Частота                                  : 48,0 КГц
Частота кадров                           : 31,250 кадров/сек (1536 SPF)
Битовая глубина                          : 16 бит
Метод сжатия                             : С потерями
Размер потока                            : 403 Мбайт (6%)
Язык                                     : English
ServiceKind/String                       : Complete Main
Default                                  : Нет
Forced                                   : Нет
ENCODING_INFO                            : DTS-HD MA > AC3 CBR 640kbps

Текст #1
Идентификатор                            : 4
Формат                                   : UTF-8
Идентификатор кодека                     : S_TEXT/UTF8
Идентификатор кодека/Информация          : UTF-8 Plain Text
Заголовок                                : forced
Язык                                     : Russian
Default                                  : Да
Forced                                   : Да
ENCODING_INFO                            : SUBRIP > COPY Быстрое

Текст #2
Идентификатор                            : 5
Формат                                   : UTF-8
Идентификатор кодека                     : S_TEXT/UTF8
Идентификатор кодека/Информация          : UTF-8 Plain Text
Заголовок                                : Enigma
Язык                                     : Russian
Default                                  : Нет
Forced                                   : Нет
ENCODING_INFO                            : SUBRIP > COPY Быстрое

Текст #3
Идентификатор                            : 6
Формат                                   : UTF-8
Идентификатор кодека                     : S_TEXT/UTF8
Идентификатор кодека/Информация          : UTF-8 Plain Text
Язык                                     : English
Default                                  : Нет
Forced                                   : Нет
ENCODING_INFO                            : SUBRIP > COPY Быстрое

Меню
00:00:00.000                             : :Chapter 01
00:07:03.000                             : :Chapter 02
00:12:44.708                             : :Chapter 03
00:20:39.791                             : :Chapter 04
00:27:07.833                             : :Chapter 05
00:30:51.125                             : :Chapter 06
00:34:17.500                             : :Chapter 07
00:39:37.250                             : :Chapter 08
00:44:51.875                             : :Chapter 09
00:48:46.166                             : :Chapter 10
00:53:24.166                             : :Chapter 11
00:59:33.583                             : :Chapter 12
01:07:28.250                             : :Chapter 13
01:12:48.708                             : :Chapter 14
01:17:49.541                             : :Chapter 15
01:23:02.125                             : :Chapter 16


_________________
Проголосуй за трекер Открытый торрент трекер - RUS-MEDIA.ORG

Проголосуй Открытый торрент трекер - RUS-MEDIA.ORG


Скачать книги и аудио книги через торрент


Вернуться к началу
 Профиль Отправить личное сообщение  
 
   Похожие торренты   Автор   Торрент   Размер 
В этой теме нет новых непрочитанных сообщений. Пункт назначения: Смайл / Полароид / Polaroid [Ужасы, триллер, детектив, 2019] BDRip 1080p, Dub [iTunes]

salma3

10 | 1

5.63 ГБ

В этой теме нет новых непрочитанных сообщений. Пункт назначения: Смайл / Полароид / Polaroid [Ужасы, триллер, детектив, 2019] BDRip, Dub [iTunes]

salma3

9 | 4

1.44 ГБ

В этой теме нет новых непрочитанных сообщений. Пункт назначения: Смайл / Полароид / Polaroid [Ужасы, триллер, детектив, 2019] BDRip 720p, Dub [iTunes]

salma3

0 | 0

3.64 ГБ

В этой теме нет новых непрочитанных сообщений. Пункт назначения 3 / Final Destination 3 [ужасы, триллер, 2006] BDRip-AVC, Dub [Open Matte]

salma3

5 | 1

2.06 ГБ

В этой теме нет новых непрочитанных сообщений. Полароид / Polaroid [Ужасы, триллер, драма, 2019] BDRip 1080p, Mvo

salma3

1 | 6

6.67 ГБ

В этой теме нет новых непрочитанных сообщений. Проклятие плачущей / The Curse of La Llorona [Ужасы, триллер, детектив, 2019] BDRip 1080p, Dub [iTunes]

salma3

0 | 0

7.14 ГБ

В этой теме нет новых непрочитанных сообщений. Полароид / Polaroid [Ужасы, триллер, драма, 2019] BDRip, Mvo

salma3

509 | 26

1.46 ГБ


Начать новую тему Ответить на тему  [ 1 сообщение ] 




Для Мосгорсуда, Роскомнадзора и рекламодателей:: rstracker[собака]yandex.ru
cron